NoPaste

youtube-dl / ffmpeg

von geier22

Dein Code:
  1. hans@sparkyxfce:~/Schreibtisch$ youtube-dl http://www.podcast.de/episode/293897525/FMM%2B005%2B%253A%2BBrauchst%2BDu%2Bk%25C3%25BCnstliche%2BVitamine%253F%2BH%25C3%25B6rer-Sprechstunde%2Bmit%2Beinem%2BErn%25C3%25A4hrungsmediziner/ --output "%(title)s.%(ext)s" && ffmpeg -i *.mp3 -vn -acodec libvorbis -b:a 32k -ac 1 FMM_005:_Brauchst_Du_künstliche_Vitamine_32k?.ogg && mv *.mp3 /home/hans/Downloads
  2. [generic] FMM+005+%3A+Brauchst+Du+k%C3%BCnstliche+Vitamine%3F+H%C3%B6rer-Sprechstunde+mit+einem+Ern%C3%A4hrungsmediziner: Requesting header
  3. WARNING: Falling back on generic information extractor.
  4. [generic] FMM+005+%3A+Brauchst+Du+k%C3%BCnstliche+Vitamine%3F+H%C3%B6rer-Sprechstunde+mit+einem+Ern%C3%A4hrungsmediziner: Downloading webpage
  5. [generic] FMM+005+%3A+Brauchst+Du+k%C3%BCnstliche+Vitamine%3F+H%C3%B6rer-Sprechstunde+mit+einem+Ern%C3%A4hrungsmediziner: Extracting information
  6. [download] Downloading playlist: None
  7. [generic] playlist None: Collected 1 video ids (downloading 1 of them)
  8. [download] Downloading video 1 of 1
  9. [download] Destination: FMM 005  - Brauchst Du künstliche Vitamine Hörer-Sprechstunde mit einem Ernährungsmediziner - MP3 online hören - Fitness mit M.A.R.K. Podcast - Abnehmen _ Muskelaufbau _ Ernährung _ Motivation - Audi....mp3
  10. [download] 100% of 46.25MiB in 00:50
  11. [download] Finished downloading playlist: None
  12. ffmpeg version 3.3.4 Copyright (c) 2000-2017 the FFmpeg developers
  13.   built with gcc 7 (Debian 7.2.0-4)
  14.   configuration: --disable-decoder=amrnb --disable-decoder=libopenjpeg --disable-mips32r2 --disable-mips32r6 --disable-mips64r6 --disable-mipsdsp --disable-mipsdspr2 --disable-mipsfpu --disable-msa --disable-libopencv --disable-podpages --disable-stripping --enable-avfilter --enable-avresample --enable-gcrypt --enable-gnutls --enable-gpl --enable-libass --enable-libbluray --enable-libbs2b --enable-libcaca --enable-libcdio --enable-libfdk-aac --enable-libfontconfig --enable-libfreetype --enable-libfribidi --enable-libgme --enable-libgsm --enable-libilbc --enable-libkvazaar --enable-libmp3lame --enable-libopencore-amrnb --enable-libopencore-amrwb --enable-libopenh264 --enable-libopenjpeg --enable-libopenmpt --enable-libopus --enable-libpulse --enable-librubberband --enable-libshine --enable-libsnappy --enable-libsoxr --enable-libspeex --enable-libtesseract --enable-libtheora --enable-libvidstab --enable-libvo-amrwbenc --enable-libvorbis --enable-libvpx --enable-libx265 --enable-libxvid --enable-libzvbi --enable-nonfree --enable-opengl --enable-openssl --enable-postproc --enable-pthreads --enable-shared --enable-version3 --enable-libwebp --incdir=/usr/include/x86_64-linux-gnu --libdir=/usr/lib/x86_64-linux-gnu --prefix=/usr --toolchain=hardened --enable-frei0r --enable-chromaprint --enable-libx264 --enable-libiec61883 --enable-libdc1394 --enable-vaapi --disable-opencl --enable-libmfx --disable-altivec --shlibdir=/usr/lib/x86_64-linux-gnu
  15.   libavutil      55. 58.100 / 55. 58.100
  16.   libavcodec     57. 89.100 / 57. 89.100
  17.   libavformat    57. 71.100 / 57. 71.100
  18.   libavdevice    57.  6.100 / 57.  6.100
  19.   libavfilter     6. 82.100 /  6. 82.100
  20.   libavresample   3.  5.  0 /  3.  5.  0
  21.   libswscale      4.  6.100 /  4.  6.100
  22.   libswresample   2.  7.100 /  2.  7.100
  23.   libpostproc    54.  5.100 / 54.  5.100
  24. [mp3 @ 0x55dcb03297a0] Estimating duration from bitrate, this may be inaccurate
  25. Input #0, mp3, from 'FMM 005  - Brauchst Du künstliche Vitamine Hörer-Sprechstunde mit einem Ernährungsmediziner - MP3 online hören - Fitness mit M.A.R.K. Podcast - Abnehmen _ Muskelaufbau _ Ernährung _ Motivation - Audi....mp3':
  26.   Metadata:
  27.     TSS             : Logic 10.0.7
  28.     iTunNORM        :  00000634 00000778 0001CBA4 00028F72 0022C8B1 0022E0AC 00008792 0000893F 002D94AC 002DAE7D
  29.     iTunSMPB        :  00000000 00000210 00000B11 0000000007EA24DF 00000000 02DF139A 00000000 00000000 00000000 00000000 00000000 00000000
  30.     artist          : Mark Maslow: Dranbleiben Fitness Coach, Personal Trainer und Blogger
  31.     album_artist    : Mark Maslow: Dranbleiben Fitness Coach, Personal Trainer und Blogger
  32.     TCM             : Mark Maslow: Dranbleiben Fitness Coach, Personal Trainer und Blogger
  33.     album           : Fitness mit M.A.R.K. Podcast: Abnehmen | Muskelaufbau | Ernährung | Motivation
  34.     TT1             : Fitness mit M.A.R.K. Podcast: Abnehmen | Muskelaufbau | Ernährung | Motivation
  35.     comment         : Q&A mit Niels Schulz-Ruhtenberg, Sportarzt, Ernährungsmediziner und Ironman. Wir beantworten Deine Fragen zu den Themen: gesunde Ernährung, Vitamine, Mineralien, Nährstoffe, Nahrungsergänzungsmittel mit dem Ziel Abnehmen, Muskelaufbau, nackt gut ausse
  36.     genre           : Podcast
  37.     track           : 5
  38.     title           : FMM 005 : Q&A über Vitamine, Mineralien und Nahrungsergänzungsmittel mit dem Arzt Niels Schulz-Ruhtenberg
  39.     date            : 2014
  40.   Duration: 00:50:11.08, start: 0.000000, bitrate: 128 kb/s
  41.     Stream #0:0: Audio: mp3, 44100 Hz, stereo, s16p, 128 kb/s
  42.     Stream #0:1: Video: mjpeg, yuvj444p(pc, bt470bg/unknown/unknown), 1400x1400, 90k tbr, 90k tbn, 90k tbc
  43.     Metadata:
  44.       comment         : Other
  45. Stream mapping:
  46.   Stream #0:0 -> #0:0 (mp3 (native) -> vorbis (libvorbis))
  47. Press [q] to stop, [?] for help
  48. Output #0, ogg, to 'FMM_005:_Brauchst_Du_künstliche_Vitamine_32k?.ogg':
  49.   Metadata:
  50.     TSS             : Logic 10.0.7
  51.     iTunNORM        :  00000634 00000778 0001CBA4 00028F72 0022C8B1 0022E0AC 00008792 0000893F 002D94AC 002DAE7D
  52.     iTunSMPB        :  00000000 00000210 00000B11 0000000007EA24DF 00000000 02DF139A 00000000 00000000 00000000 00000000 00000000 00000000
  53.     artist          : Mark Maslow: Dranbleiben Fitness Coach, Personal Trainer und Blogger
  54.     album_artist    : Mark Maslow: Dranbleiben Fitness Coach, Personal Trainer und Blogger
  55.     TCM             : Mark Maslow: Dranbleiben Fitness Coach, Personal Trainer und Blogger
  56.     album           : Fitness mit M.A.R.K. Podcast: Abnehmen | Muskelaufbau | Ernährung | Motivation
  57.     TT1             : Fitness mit M.A.R.K. Podcast: Abnehmen | Muskelaufbau | Ernährung | Motivation
  58.     comment         : Q&A mit Niels Schulz-Ruhtenberg, Sportarzt, Ernährungsmediziner und Ironman. Wir beantworten Deine Fragen zu den Themen: gesunde Ernährung, Vitamine, Mineralien, Nährstoffe, Nahrungsergänzungsmittel mit dem Ziel Abnehmen, Muskelaufbau, nackt gut ausse
  59.     genre           : Podcast
  60.     track           : 5
  61.     title           : FMM 005 : Q&A über Vitamine, Mineralien und Nahrungsergänzungsmittel mit dem Arzt Niels Schulz-Ruhtenberg
  62.     date            : 2014
  63.     encoder         : Lavf57.71.100
  64.     Stream #0:0: Audio: vorbis (libvorbis), 44100 Hz, mono, fltp, 32 kb/s
  65.     Metadata:
  66.       encoder         : Lavc57.89.100 libvorbis
  67.       TSS             : Logic 10.0.7
  68.       iTunNORM        :  00000634 00000778 0001CBA4 00028F72 0022C8B1 0022E0AC 00008792 0000893F 002D94AC 002DAE7D
  69.       iTunSMPB        :  00000000 00000210 00000B11 0000000007EA24DF 00000000 02DF139A 00000000 00000000 00000000 00000000 00000000 00000000
  70.       artist          : Mark Maslow: Dranbleiben Fitness Coach, Personal Trainer und Blogger
  71.       ALBUMARTIST     : Mark Maslow: Dranbleiben Fitness Coach, Personal Trainer und Blogger
  72.       TCM             : Mark Maslow: Dranbleiben Fitness Coach, Personal Trainer und Blogger
  73.       album           : Fitness mit M.A.R.K. Podcast: Abnehmen | Muskelaufbau | Ernährung | Motivation
  74.       TT1             : Fitness mit M.A.R.K. Podcast: Abnehmen | Muskelaufbau | Ernährung | Motivation
  75.       DESCRIPTION     : Q&A mit Niels Schulz-Ruhtenberg, Sportarzt, Ernährungsmediziner und Ironman. Wir beantworten Deine Fragen zu den Themen: gesunde Ernährung, Vitamine, Mineralien, Nährstoffe, Nahrungsergänzungsmittel mit dem Ziel Abnehmen, Muskelaufbau, nackt gut ausse
  76.       genre           : Podcast
  77.       TRACKNUMBER     : 5
  78.       title           : FMM 005 : Q&A über Vitamine, Mineralien und Nahrungsergänzungsmittel mit dem Arzt Niels Schulz-Ruhtenberg
  79.       date            : 2014
  80. [mp3 @ 0x55dcb032d320] overread, skip -6 enddists: -5 -5peed=65.5x    
  81. [mp3 @ 0x55dcb032d320] overread, skip -7 enddists: -6 -6peed=66.9x    
  82. size=   12242kB time=00:50:11.06 bitrate=  33.3kbits/s speed=  67x    
  83. video:0kB audio:12073kB subtitle:0kB other streams:0kB global headers:3kB muxing overhead: 1.398809%
  84. hans@sparkyxfce:~/Schreibtisch$

Quellcode

Hier kannst du den Code kopieren und ihn in deinen bevorzugten Editor einfügen. Alternativ kannst du den gesamten Eintrag auch als Datei herunterladen.