NoPaste

Video_Tonspuren entfernen

von paul1234

Dein Code:
  1. ecki63@eckiTP520:~/Videos$ ffmpeg -i Star_Wars1.mp4
  2. ffmpeg version 3.2.5-1~bpo8+1 Copyright (c) 2000-2017 the FFmpeg developers
  3.   built with gcc 4.9.2 (Debian 4.9.2-10)
  4.   configuration: --prefix=/usr --extra-version='1~bpo8+1' --toolchain=hardened --libdir=/usr/lib/x86_64-linux-gnu --incdir=/usr/include/x86_64-linux-gnu --enable-gpl --disable-stripping --enable-avresample --enable-avisynth --enable-gnutls --enable-ladspa --enable-libass --enable-libbluray --enable-libbs2b --enable-libcaca --enable-libcdio --disable-libebur128 --enable-libflite --enable-libfontconfig --enable-libfreetype --enable-libfribidi --enable-libgme --enable-libgsm --enable-libmodplug --enable-libmp3lame --enable-libopenjpeg --enable-libopus --enable-libpulse --enable-librubberband --enable-libshine --enable-libsnappy --enable-libsoxr --enable-libspeex --enable-libssh --enable-libtheora --enable-libtwolame --enable-libvorbis --enable-libvpx --enable-libwavpack --enable-libwebp --enable-libx265 --enable-libxvid --enable-libzmq --enable-libzvbi --enable-omx --enable-openal --enable-opengl --enable-sdl2 --enable-libdc1394 --enable-libiec61883 --enable-chromaprint --enable-frei0r --enable-libopencv --enable-libx264 --enable-shared
  5.   libavutil      55. 34.101 / 55. 34.101
  6.   libavcodec     57. 64.101 / 57. 64.101
  7.   libavformat    57. 56.101 / 57. 56.101
  8.   libavdevice    57.  1.100 / 57.  1.100
  9.   libavfilter     6. 65.100 /  6. 65.100
  10.   libavresample   3.  1.  0 /  3.  1.  0
  11.   libswscale      4.  2.100 /  4.  2.100
  12.   libswresample   2.  3.100 /  2.  3.100
  13.   libpostproc    54.  1.100 / 54.  1.100
  14. Input #0, mpeg, from 'Star_Wars1.mp4':
  15.  Duration: 01:10:20.48, start: 0.217322, bitrate: 13448 kb/s
  16.     Stream #0:0[0x1e0]: Video: mpeg2video (Main), yuv420p(tv, bt470bg, top first), 720x576 [SAR 64:45 DAR 16:9], 25 fps, 25 tbr, 90k tbn, 50 tbc
  17.    Stream #0:1[0x20]: Subtitle: dvd_subtitle
  18.    Stream #0:2[0x21]: Subtitle: dvd_subtitle
  19.    Stream #0:3[0x22]: Subtitle: dvd_subtitle
  20.    Stream #0:4[0x23]: Subtitle: dvd_subtitle
  21.    Stream #0:5[0x24]: Subtitle: dvd_subtitle
  22.    Stream #0:6[0x25]: Subtitle: dvd_subtitle
  23.    Stream #0:7[0x26]: Subtitle: dvd_subtitle
  24.    Stream #0:8[0x27]: Subtitle: dvd_subtitle
  25.    Stream #0:9[0x28]: Subtitle: dvd_subtitle
  26.    Stream #0:10[0x29]: Subtitle: dvd_subtitle
  27.    Stream #0:11[0x2a]: Subtitle: dvd_subtitle
  28.    Stream #0:12[0x2b]: Subtitle: dvd_subtitle
  29.    Stream #0:13[0x80]: Audio: ac3, 48000 Hz, 5.1(side), fltp, 448 kb/s
  30.    Stream #0:14[0x81]: Audio: ac3, 48000 Hz, 5.1(side), fltp, 384 kb/s
  31.    Stream #0:15[0x82]: Audio: ac3, 48000 Hz, 5.1(side), fltp, 384 kb/s
  32. At least one output file must be specified

Quellcode

Hier kannst du den Code kopieren und ihn in deinen bevorzugten Editor einfügen. Alternativ kannst du den gesamten Eintrag auch als Datei herunterladen.