NoPaste

Audiospuren entfernen

von paul1234

Dein Code:
  1. Stream #0:0[0x1e0]: Video: mpeg2video (Main), yuv420p(tv, bt470bg, top FIRST), 720x576 [SAR 64:45 DAR 16:9], 25 fps, 25 tbr, 90k tbn, 50 tbc
  2.     Stream #0:1[0x20]: Subtitle: dvd_subtitle
  3.     Stream #0:2[0x21]: Subtitle: dvd_subtitle
  4.     Stream #0:3[0x22]: Subtitle: dvd_subtitle
  5.     Stream #0:4[0x23]: Subtitle: dvd_subtitle
  6.     Stream #0:5[0x24]: Subtitle: dvd_subtitle
  7.     Stream #0:6[0x25]: Subtitle: dvd_subtitle
  8.     Stream #0:7[0x26]: Subtitle: dvd_subtitle
  9.     Stream #0:8[0x27]: Subtitle: dvd_subtitle
  10.     Stream #0:9[0x28]: Subtitle: dvd_subtitle
  11.     Stream #0:10[0x29]: Subtitle: dvd_subtitle
  12.     Stream #0:11[0x2a]: Subtitle: dvd_subtitle
  13.     Stream #0:12[0x2b]: Subtitle: dvd_subtitle
  14.     Stream #0:13[0x80]: Audio: ac3, 48000 Hz, 5.1(side), fltp, 448 kb/s
  15.     Stream #0:14[0x81]: Audio: ac3, 48000 Hz, 5.1(side), fltp, 384 kb/s
  16.     Stream #0:15[0x82]: Audio: ac3, 48000 Hz, 5.1(side), fltp, 384 kb/s

Quellcode

Hier kannst du den Code kopieren und ihn in deinen bevorzugten Editor einfügen. Alternativ kannst du den gesamten Eintrag auch als Datei herunterladen.