NoPaste

ffmulticonverter

von willy4711

Dein Code:
  1. /usr/bin/ffmpeg -y -i "/home/willy/Musik/Mississippi Burnin' Blues/15 - Sweet Miss Coffy - Back In The Streets Again.mp3" -vn -acodec libmp3lame -b:a 320k -ar 44100 -ac 2 "/home/willy/Musik/Mississippi Burnin' Blues/ffmulticonverter/15 - Sweet Miss Coffy - Back In The Streets Again.mp3"
  2. ffmpeg version 4.1.1 Copyright (c) 2000-2019 the FFmpeg developers
  3.   built with gcc 8 (Debian 8.2.0-19)
  4.   configuration: --disable-decoder=amrnb --disable-decoder=libopenjpeg --disable-libopencv --disable-podpages --disable-sndio --disable-stripping --enable-libaom --enable-avfilter --enable-avresample --enable-gcrypt --enable-gnutls --enable-gpl --enable-libass --enable-libbluray --enable-libbs2b --enable-libcaca --enable-libcdio --enable-libcodec2 --enable-libfdk-aac --enable-libfontconfig --enable-libfreetype --enable-libfribidi --enable-libgme --enable-libgsm --enable-libilbc --enable-libkvazaar --enable-libmp3lame --enable-libopencore-amrnb --enable-libopencore-amrwb --enable-libopenh264 --enable-libopenjpeg --enable-libopenmpt --enable-libopus --enable-libpulse --enable-librubberband --enable-libshine --enable-libsnappy --enable-libsoxr --enable-libspeex --enable-libtesseract --enable-libtheora --enable-libvidstab --enable-libvo-amrwbenc --enable-libvorbis --enable-libvpx --enable-libx265 --enable-libxvid --enable-libzvbi --enable-nonfree --enable-opencl --enable-opengl --enable-postproc --enable-pthreads --enable-shared --enable-version3 --enable-libwebp --incdir=/usr/include/x86_64-linux-gnu --libdir=/usr/lib/x86_64-linux-gnu --prefix=/usr --toolchain=hardened --enable-frei0r --enable-chromaprint --enable-libx264 --enable-libiec61883 --enable-libdc1394 --enable-vaapi --enable-libmfx --disable-altivec --shlibdir=/usr/lib/x86_64-linux-gnu
  5.   libavutil      56. 22.100 / 56. 22.100
  6.   libavcodec     58. 35.100 / 58. 35.100
  7.   libavformat    58. 20.100 / 58. 20.100
  8.   libavdevice    58.  5.100 / 58.  5.100
  9.   libavfilter     7. 40.101 /  7. 40.101
  10.   libavresample   4.  0.  0 /  4.  0.  0
  11.   libswscale      5.  3.100 /  5.  3.100
  12.   libswresample   3.  3.100 /  3.  3.100
  13.   libpostproc    55.  3.100 / 55.  3.100
  14. Input #0, mp3, from '/home/willy/Musik/Mississippi Burnin' Blues/15 - Sweet Miss Coffy - Back In The Streets Again.mp3':
  15.  Metadata:
  16.     REPLAYGAIN_TRACK_GAIN: -3.09 dB
  17.     PEAK LEVEL (SAMPLE): -1,6 dB; -3,0 Left; -1,6 Right
  18.     VOLUME LEVEL (R128): -8,0921201705932617
  19.     REPLAYGAIN_TRACK_PEAK: 0.832000
  20.     DYNAMIC RANGE (DR): 11
  21.     genre           : Blues
  22.     track           : 15
  23.     artist          : Sweet Miss Coffy
  24.     PEAK LEVEL (R128): -1,6 dBTP; -2,9 Left; -1,6 Right
  25.     BPM             : 95
  26.     DYNAMIC RANGE (R128): 2,4927000999450684
  27.     album           : Mississippi Burnin' Blues
  28.    VOLUME LEVEL (REPLAYGAIN): -3,0921199321746826
  29.    COMMENT         : Track 15; EAC (T&C In Burst Mode)
  30.    date            : 1993
  31.    title           : Back In The Streets Again
  32.    encoder         : Lavf58.20.100
  33.  Duration: 00:03:39.48, start: 0.023021, bitrate: 320 kb/s
  34.    Stream #0:0: Audio: mp3, 48000 Hz, stereo, fltp, 320 kb/s
  35.    Metadata:
  36.      encoder         : Lavc58.35
  37.    Side data:
  38.      replaygain: track gain - -3.090000, track peak - 0.000019, album gain - unknown, album peak - unknown,
  39. Stream mapping:
  40.  Stream #0:0 -> #0:0 (mp3 (mp3float) -> mp3 (libmp3lame))
  41. Press [q] to stop, [?] for help
  42. Output #0, mp3, to '/home/willy/Musik/Mississippi Burnin' Blues/ffmulticonverter/15 - Sweet Miss Coffy - Back In The Streets Again.mp3':
  43.   Metadata:
  44.     REPLAYGAIN_TRACK_GAIN: -3.09 dB
  45.     PEAK LEVEL (SAMPLE): -1,6 dB; -3,0 Left; -1,6 Right
  46.     VOLUME LEVEL (R128): -8,0921201705932617
  47.     REPLAYGAIN_TRACK_PEAK: 0.832000
  48.     DYNAMIC RANGE (DR): 11
  49.     TCON            : Blues
  50.     TRCK            : 15
  51.     TPE1            : Sweet Miss Coffy
  52.     PEAK LEVEL (R128): -1,6 dBTP; -2,9 Left; -1,6 Right
  53.     BPM             : 95
  54.     DYNAMIC RANGE (R128): 2,4927000999450684
  55.     TALB            : Mississippi Burnin' Blues
  56.    VOLUME LEVEL (REPLAYGAIN): -3,0921199321746826
  57.    COMMENT         : Track 15; EAC (T&C In Burst Mode)
  58.    TDRC            : 1993
  59.    TIT2            : Back In The Streets Again
  60.    TSSE            : Lavf58.20.100
  61.    Stream #0:0: Audio: mp3 (libmp3lame), 44100 Hz, stereo, fltp, 320 kb/s
  62.    Metadata:
  63.      encoder         : Lavc58.35.100 libmp3lame
  64.    Side data:
  65.      replaygain: track gain - -3.090000, track peak - 0.000019, album gain - unknown, album peak - unknown,
  66. size=     512kB time=00:00:14.89 bitrate= 281.7kbits/s speed=29.8x    
  67. size=    1024kB time=00:00:30.32 bitrate= 276.6kbits/s speed=30.3x    
  68. size=    1792kB time=00:00:46.05 bitrate= 318.8kbits/s speed=30.7x    
  69. size=    2304kB time=00:01:01.59 bitrate= 306.4kbits/s speed=30.8x    
  70. size=    2816kB time=00:01:16.64 bitrate= 301.0kbits/s speed=30.6x    
  71. size=    3584kB time=00:01:32.47 bitrate= 317.5kbits/s speed=30.8x    
  72. size=    4096kB time=00:01:47.91 bitrate= 310.9kbits/s speed=30.8x    
  73. size=    4608kB time=00:02:03.29 bitrate= 306.2kbits/s speed=30.8x    
  74. size=    5376kB time=00:02:18.58 bitrate= 317.8kbits/s speed=30.8x    
  75. size=    5888kB time=00:02:34.30 bitrate= 312.6kbits/s speed=30.8x    
  76. size=    6400kB time=00:02:49.77 bitrate= 308.8kbits/s speed=30.8x    
  77. size=    7168kB time=00:03:05.65 bitrate= 316.3kbits/s speed=30.9x    
  78. size=    7680kB time=00:03:21.01 bitrate= 313.0kbits/s speed=30.9x    
  79. size=    8448kB time=00:03:37.00 bitrate= 318.9kbits/s speed=  31x    
  80. size=    8575kB time=00:03:39.45 bitrate= 320.1kbits/s speed=  31x    
  81. video:0kB audio:8573kB subtitle:0kB other streams:0kB global headers:0kB muxing overhead: 0.019854%

Quellcode

Hier kannst du den Code kopieren und ihn in deinen bevorzugten Editor einfügen. Alternativ kannst du den gesamten Eintrag auch als Datei herunterladen.