NoPaste

ffmpeg convert flac mp3

von willy4711

Dein Code:
  1. $ /home/willy/Dokumente/Skripte/flacmp3-c
  2. ffmpeg version 4.1.1 Copyright (c) 2000-2019 the FFmpeg developers
  3.   built with gcc 8 (Debian 8.2.0-19)
  4.   configuration: --disable-decoder=amrnb --disable-decoder=libopenjpeg --disable-libopencv --disable-podpages --disable-sndio --disable-stripping --enable-libaom --enable-avfilter --enable-avresample --enable-gcrypt --enable-gnutls --enable-gpl --enable-libass --enable-libbluray --enable-libbs2b --enable-libcaca --enable-libcdio --enable-libcodec2 --enable-libfdk-aac --enable-libfontconfig --enable-libfreetype --enable-libfribidi --enable-libgme --enable-libgsm --enable-libilbc --enable-libkvazaar --enable-libmp3lame --enable-libopencore-amrnb --enable-libopencore-amrwb --enable-libopenh264 --enable-libopenjpeg --enable-libopenmpt --enable-libopus --enable-libpulse --enable-librubberband --enable-libshine --enable-libsnappy --enable-libsoxr --enable-libspeex --enable-libtesseract --enable-libtheora --enable-libvidstab --enable-libvo-amrwbenc --enable-libvorbis --enable-libvpx --enable-libx265 --enable-libxvid --enable-libzvbi --enable-nonfree --enable-opencl --enable-opengl --enable-postproc --enable-pthreads --enable-shared --enable-version3 --enable-libwebp --incdir=/usr/include/x86_64-linux-gnu --libdir=/usr/lib/x86_64-linux-gnu --prefix=/usr --toolchain=hardened --enable-frei0r --enable-chromaprint --enable-libx264 --enable-libiec61883 --enable-libdc1394 --enable-vaapi --enable-libmfx --disable-altivec --shlibdir=/usr/lib/x86_64-linux-gnu
  5.   libavutil      56. 22.100 / 56. 22.100
  6.   libavcodec     58. 35.100 / 58. 35.100
  7.   libavformat    58. 20.100 / 58. 20.100
  8.   libavdevice    58.  5.100 / 58.  5.100
  9.   libavfilter     7. 40.101 /  7. 40.101
  10.   libavresample   4.  0.  0 /  4.  0.  0
  11.   libswscale      5.  3.100 /  5.  3.100
  12.   libswresample   3.  3.100 /  3.  3.100
  13.   libpostproc    55.  3.100 / 55.  3.100
  14. Input #0, flac, from '05 - Cadillac George Harris - Feel Like Breaking Up Somebody's Home.flac':
  15.  Metadata:
  16.     TOOL NAME       : Media Center
  17.     REPLAYGAIN_TRACK_GAIN: -3.11 dB
  18.     PEAK LEVEL (SAMPLE): -1,4 dB; -2,4 Left; -1,4 Right
  19.     VOLUME LEVEL (R128): -8,10968017578125
  20.     REPLAYGAIN_TRACK_PEAK: 0.851000
  21.     DYNAMIC RANGE (DR): 11
  22.     GENRE           : Blues
  23.     track           : 5
  24.     ARTIST          : Cadillac George Harris
  25.     PEAK LEVEL (R128): -1,4 dBTP; -2,4 Left; -1,4 Right
  26.     BPM             : 98
  27.     DYNAMIC RANGE (R128): 2,6258699893951416
  28.     ALBUM           : Mississippi Burnin' Blues
  29.    VOLUME LEVEL (REPLAYGAIN): -3,1096799373626709
  30.    COMMENT         : Track 5; EAC (T&C In Burst Mode)
  31.    DATE            : 1993
  32.    TITLE           : Feel Like Breaking Up Somebody's Home
  33.   Duration: 00:06:23.57, start: 0.000000, bitrate: 796 kb/s
  34.     Stream #0:0: Audio: flac, 44100 Hz, stereo, s16
  35.    Side data:
  36.       replaygain: track gain - -3.110000, track peak - 0.000020, album gain - unknown, album peak - unknown,
  37.     Stream #0:1: Video: mjpeg, yuvj444p(pc, bt470bg/unknown/unknown), 300x300 [SAR 1:1 DAR 1:1], 90k tbr, 90k tbn, 90k tbc
  38.    Metadata:
  39.       comment         : Cover (front)
  40. Stream mapping:
  41.   Stream #0:0 -> #0:0 (flac (native) -> mp3 (libmp3lame))
  42. Press [q] to stop, [?] for help
  43. Output #0, mp3, to '05 - Cadillac George Harris - Feel Like Breaking Up Somebody's Home.mp3':
  44.  Metadata:
  45.     TOOL NAME       : Media Center
  46.     REPLAYGAIN_TRACK_GAIN: -3.11 dB
  47.     PEAK LEVEL (SAMPLE): -1,4 dB; -2,4 Left; -1,4 Right
  48.     VOLUME LEVEL (R128): -8,10968017578125
  49.     REPLAYGAIN_TRACK_PEAK: 0.851000
  50.     DYNAMIC RANGE (DR): 11
  51.     TCON            : Blues
  52.     TRCK            : 5
  53.     TPE1            : Cadillac George Harris
  54.     PEAK LEVEL (R128): -1,4 dBTP; -2,4 Left; -1,4 Right
  55.     BPM             : 98
  56.     DYNAMIC RANGE (R128): 2,6258699893951416
  57.     TALB            : Mississippi Burnin' Blues
  58.    VOLUME LEVEL (REPLAYGAIN): -3,1096799373626709
  59.    COMMENT         : Track 5; EAC (T&C In Burst Mode)
  60.    TDRC            : 1993
  61.    TIT2            : Feel Like Breaking Up Somebody's Home
  62.     TSSE            : Lavf58.20.100
  63.     Stream #0:0: Audio: mp3 (libmp3lame), 44100 Hz, stereo, s16p, 320 kb/s
  64.    Metadata:
  65.       encoder         : Lavc58.35.100 libmp3lame
  66.     Side data:
  67.       replaygain: track gain - -3.110000, track peak - 0.000020, album gain - unknown, album peak - unknown,
  68. size=   14986kB time=00:06:23.58 bitrate= 320.1kbits/s speed=35.4x    
  69. video:0kB audio:14985kB subtitle:0kB other streams:0kB global headers:0kB muxing overhead: 0.011450%
  70. ffmpeg version 4.1.1 Copyright (c) 2000-2019 the FFmpeg developers
  71.   built with gcc 8 (Debian 8.2.0-19)
  72.   configuration: --disable-decoder=amrnb --disable-decoder=libopenjpeg --disable-libopencv --disable-podpages --disable-sndio --disable-stripping --enable-libaom --enable-avfilter --enable-avresample --enable-gcrypt --enable-gnutls --enable-gpl --enable-libass --enable-libbluray --enable-libbs2b --enable-libcaca --enable-libcdio --enable-libcodec2 --enable-libfdk-aac --enable-libfontconfig --enable-libfreetype --enable-libfribidi --enable-libgme --enable-libgsm --enable-libilbc --enable-libkvazaar --enable-libmp3lame --enable-libopencore-amrnb --enable-libopencore-amrwb --enable-libopenh264 --enable-libopenjpeg --enable-libopenmpt --enable-libopus --enable-libpulse --enable-librubberband --enable-libshine --enable-libsnappy --enable-libsoxr --enable-libspeex --enable-libtesseract --enable-libtheora --enable-libvidstab --enable-libvo-amrwbenc --enable-libvorbis --enable-libvpx --enable-libx265 --enable-libxvid --enable-libzvbi --enable-nonfree --enable-opencl --enable-opengl --enable-postproc --enable-pthreads --enable-shared --enable-version3 --enable-libwebp --incdir=/usr/include/x86_64-linux-gnu --libdir=/usr/lib/x86_64-linux-gnu --prefix=/usr --toolchain=hardened --enable-frei0r --enable-chromaprint --enable-libx264 --enable-libiec61883 --enable-libdc1394 --enable-vaapi --enable-libmfx --disable-altivec --shlibdir=/usr/lib/x86_64-linux-gnu
  73.   libavutil      56. 22.100 / 56. 22.100
  74.   libavcodec     58. 35.100 / 58. 35.100
  75.   libavformat    58. 20.100 / 58. 20.100
  76.   libavdevice    58.  5.100 / 58.  5.100
  77.   libavfilter     7. 40.101 /  7. 40.101
  78.   libavresample   4.  0.  0 /  4.  0.  0
  79.   libswscale      5.  3.100 /  5.  3.100
  80.   libswresample   3.  3.100 /  3.  3.100
  81.   libpostproc    55.  3.100 / 55.  3.100
  82. Input #0, flac, from '06 - Cadillac George Harris - Dangerous Woman.flac':
  83.  Metadata:
  84.     TOOL NAME       : Media Center
  85.     REPLAYGAIN_TRACK_GAIN: -2.32 dB
  86.     PEAK LEVEL (SAMPLE): -2,9 dB; -4,0 Left; -2,9 Right
  87.     VOLUME LEVEL (R128): -7,3171801567077637
  88.     REPLAYGAIN_TRACK_PEAK: 0.716000
  89.     DYNAMIC RANGE (DR): 11
  90.     GENRE           : Blues
  91.     track           : 6
  92.     ARTIST          : Cadillac George Harris
  93.     PEAK LEVEL (R128): -2,9 dBTP; -4,0 Left; -2,9 Right
  94.     BPM             : 117
  95.     DYNAMIC RANGE (R128): 2,4520499706268311
  96.     ALBUM           : Mississippi Burnin' Blues
  97.    VOLUME LEVEL (REPLAYGAIN): -2,3171799182891846
  98.    COMMENT         : Track 6; EAC (T&C In Burst Mode)
  99.    DATE            : 1993
  100.    TITLE           : Dangerous Woman
  101.  Duration: 00:03:32.07, start: 0.000000, bitrate: 861 kb/s
  102.    Stream #0:0: Audio: flac, 44100 Hz, stereo, s16
  103.    Side data:
  104.      replaygain: track gain - -2.320000, track peak - 0.000017, album gain - unknown, album peak - unknown,
  105.    Stream #0:1: Video: mjpeg, yuvj444p(pc, bt470bg/unknown/unknown), 300x300 [SAR 1:1 DAR 1:1], 90k tbr, 90k tbn, 90k tbc
  106.    Metadata:
  107.      comment         : Cover (front)
  108. Stream mapping:
  109.  Stream #0:0 -> #0:0 (flac (native) -> mp3 (libmp3lame))
  110. Press [q] to stop, [?] for help
  111. Output #0, mp3, to '06 - Cadillac George Harris - Dangerous Woman.mp3':
  112.  Metadata:
  113.    TOOL NAME       : Media Center
  114.    REPLAYGAIN_TRACK_GAIN: -2.32 dB
  115.    PEAK LEVEL (SAMPLE): -2,9 dB; -4,0 Left; -2,9 Right
  116.    VOLUME LEVEL (R128): -7,3171801567077637
  117.    REPLAYGAIN_TRACK_PEAK: 0.716000
  118.    DYNAMIC RANGE (DR): 11
  119.    TCON            : Blues
  120.    TRCK            : 6
  121.    TPE1            : Cadillac George Harris
  122.    PEAK LEVEL (R128): -2,9 dBTP; -4,0 Left; -2,9 Right
  123.    BPM             : 117
  124.    DYNAMIC RANGE (R128): 2,4520499706268311
  125.    TALB            : Mississippi Burnin' Blues
  126.     VOLUME LEVEL (REPLAYGAIN): -2,3171799182891846
  127.     COMMENT         : Track 6; EAC (T&C In Burst Mode)
  128.     TDRC            : 1993
  129.     TIT2            : Dangerous Woman
  130.     TSSE            : Lavf58.20.100
  131.     Stream #0:0: Audio: mp3 (libmp3lame), 44100 Hz, stereo, s16p, 320 kb/s
  132.    Metadata:
  133.       encoder         : Lavc58.35.100 libmp3lame
  134.     Side data:
  135.       replaygain: track gain - -2.320000, track peak - 0.000017, album gain - unknown, album peak - unknown,
  136. size=    8287kB time=00:03:32.08 bitrate= 320.1kbits/s speed=36.5x    
  137. video:0kB audio:8286kB subtitle:0kB other streams:0kB global headers:0kB muxing overhead: 0.020484%
  138. ffmpeg version 4.1.1 Copyright (c) 2000-2019 the FFmpeg developers
  139.   built with gcc 8 (Debian 8.2.0-19)
  140.   configuration: --disable-decoder=amrnb --disable-decoder=libopenjpeg --disable-libopencv --disable-podpages --disable-sndio --disable-stripping --enable-libaom --enable-avfilter --enable-avresample --enable-gcrypt --enable-gnutls --enable-gpl --enable-libass --enable-libbluray --enable-libbs2b --enable-libcaca --enable-libcdio --enable-libcodec2 --enable-libfdk-aac --enable-libfontconfig --enable-libfreetype --enable-libfribidi --enable-libgme --enable-libgsm --enable-libilbc --enable-libkvazaar --enable-libmp3lame --enable-libopencore-amrnb --enable-libopencore-amrwb --enable-libopenh264 --enable-libopenjpeg --enable-libopenmpt --enable-libopus --enable-libpulse --enable-librubberband --enable-libshine --enable-libsnappy --enable-libsoxr --enable-libspeex --enable-libtesseract --enable-libtheora --enable-libvidstab --enable-libvo-amrwbenc --enable-libvorbis --enable-libvpx --enable-libx265 --enable-libxvid --enable-libzvbi --enable-nonfree --enable-opencl --enable-opengl --enable-postproc --enable-pthreads --enable-shared --enable-version3 --enable-libwebp --incdir=/usr/include/x86_64-linux-gnu --libdir=/usr/lib/x86_64-linux-gnu --prefix=/usr --toolchain=hardened --enable-frei0r --enable-chromaprint --enable-libx264 --enable-libiec61883 --enable-libdc1394 --enable-vaapi --enable-libmfx --disable-altivec --shlibdir=/usr/lib/x86_64-linux-gnu
  141.   libavutil      56. 22.100 / 56. 22.100
  142.   libavcodec     58. 35.100 / 58. 35.100
  143.   libavformat    58. 20.100 / 58. 20.100
  144.   libavdevice    58.  5.100 / 58.  5.100
  145.   libavfilter     7. 40.101 /  7. 40.101
  146.   libavresample   4.  0.  0 /  4.  0.  0
  147.   libswscale      5.  3.100 /  5.  3.100
  148.   libswresample   3.  3.100 /  3.  3.100
  149.   libpostproc    55.  3.100 / 55.  3.100
  150. Input #0, flac, from '07 - Cadillac George Harris - That's Alright.flac':
  151.  Metadata:
  152.     TOOL NAME       : Media Center
  153.     REPLAYGAIN_TRACK_GAIN: -2.16 dB
  154.     PEAK LEVEL (SAMPLE): -1,8 dB; -3,0 Left; -1,8 Right
  155.     VOLUME LEVEL (R128): -7,1554498672485352
  156.     REPLAYGAIN_TRACK_PEAK: 0.813000
  157.     DYNAMIC RANGE (DR): 11
  158.     GENRE           : Blues
  159.     track           : 7
  160.     ARTIST          : Cadillac George Harris
  161.     PEAK LEVEL (R128): -1,8 dBTP; -3,0 Left; -1,8 Right
  162.     BPM             : 103
  163.     DYNAMIC RANGE (R128): 4,2020602226257324
  164.     ALBUM           : Mississippi Burnin' Blues
  165.    VOLUME LEVEL (REPLAYGAIN): -2,1554501056671143
  166.    COMMENT         : Track 7; EAC (T&C In Burst Mode)
  167.    DATE            : 1993
  168.    TITLE           : That's Alright
  169.   Duration: 00:04:06.16, start: 0.000000, bitrate: 778 kb/s
  170.     Stream #0:0: Audio: flac, 44100 Hz, stereo, s16
  171.    Side data:
  172.       replaygain: track gain - -2.160000, track peak - 0.000019, album gain - unknown, album peak - unknown,
  173.     Stream #0:1: Video: mjpeg, yuvj444p(pc, bt470bg/unknown/unknown), 300x300 [SAR 1:1 DAR 1:1], 90k tbr, 90k tbn, 90k tbc
  174.    Metadata:
  175.       comment         : Cover (front)
  176. Stream mapping:
  177.   Stream #0:0 -> #0:0 (flac (native) -> mp3 (libmp3lame))
  178. Press [q] to stop, [?] for help
  179. Output #0, mp3, to '07 - Cadillac George Harris - That's Alright.mp3':
  180.  Metadata:
  181.     TOOL NAME       : Media Center
  182.     REPLAYGAIN_TRACK_GAIN: -2.16 dB
  183.     PEAK LEVEL (SAMPLE): -1,8 dB; -3,0 Left; -1,8 Right
  184.     VOLUME LEVEL (R128): -7,1554498672485352
  185.     REPLAYGAIN_TRACK_PEAK: 0.813000
  186.     DYNAMIC RANGE (DR): 11
  187.     TCON            : Blues
  188.     TRCK            : 7
  189.     TPE1            : Cadillac George Harris
  190.     PEAK LEVEL (R128): -1,8 dBTP; -3,0 Left; -1,8 Right
  191.     BPM             : 103
  192.     DYNAMIC RANGE (R128): 4,2020602226257324
  193.     TALB            : Mississippi Burnin' Blues
  194.    VOLUME LEVEL (REPLAYGAIN): -2,1554501056671143
  195.    COMMENT         : Track 7; EAC (T&C In Burst Mode)
  196.    TDRC            : 1993
  197.    TIT2            : That's Alright
  198.     TSSE            : Lavf58.20.100
  199.     Stream #0:0: Audio: mp3 (libmp3lame), 44100 Hz, stereo, s16p, 320 kb/s
  200.    Metadata:
  201.       encoder         : Lavc58.35.100 libmp3lame
  202.     Side data:
  203.       replaygain: track gain - -2.160000, track peak - 0.000019, album gain - unknown, album peak - unknown,
  204. size=    9619kB time=00:04:06.17 bitrate= 320.1kbits/s speed=34.8x    
  205. video:0kB audio:9617kB subtitle:0kB other streams:0kB global headers:0kB muxing overhead: 0.017638%
  206. ffmpeg version 4.1.1 Copyright (c) 2000-2019 the FFmpeg developers
  207.   built with gcc 8 (Debian 8.2.0-19)
  208.   configuration: --disable-decoder=amrnb --disable-decoder=libopenjpeg --disable-libopencv --disable-podpages --disable-sndio --disable-stripping --enable-libaom --enable-avfilter --enable-avresample --enable-gcrypt --enable-gnutls --enable-gpl --enable-libass --enable-libbluray --enable-libbs2b --enable-libcaca --enable-libcdio --enable-libcodec2 --enable-libfdk-aac --enable-libfontconfig --enable-libfreetype --enable-libfribidi --enable-libgme --enable-libgsm --enable-libilbc --enable-libkvazaar --enable-libmp3lame --enable-libopencore-amrnb --enable-libopencore-amrwb --enable-libopenh264 --enable-libopenjpeg --enable-libopenmpt --enable-libopus --enable-libpulse --enable-librubberband --enable-libshine --enable-libsnappy --enable-libsoxr --enable-libspeex --enable-libtesseract --enable-libtheora --enable-libvidstab --enable-libvo-amrwbenc --enable-libvorbis --enable-libvpx --enable-libx265 --enable-libxvid --enable-libzvbi --enable-nonfree --enable-opencl --enable-opengl --enable-postproc --enable-pthreads --enable-shared --enable-version3 --enable-libwebp --incdir=/usr/include/x86_64-linux-gnu --libdir=/usr/lib/x86_64-linux-gnu --prefix=/usr --toolchain=hardened --enable-frei0r --enable-chromaprint --enable-libx264 --enable-libiec61883 --enable-libdc1394 --enable-vaapi --enable-libmfx --disable-altivec --shlibdir=/usr/lib/x86_64-linux-gnu
  209.   libavutil      56. 22.100 / 56. 22.100
  210.   libavcodec     58. 35.100 / 58. 35.100
  211.   libavformat    58. 20.100 / 58. 20.100
  212.   libavdevice    58.  5.100 / 58.  5.100
  213.   libavfilter     7. 40.101 /  7. 40.101
  214.   libavresample   4.  0.  0 /  4.  0.  0
  215.   libswscale      5.  3.100 /  5.  3.100
  216.   libswresample   3.  3.100 /  3.  3.100
  217.   libpostproc    55.  3.100 / 55.  3.100
  218. Input #0, flac, from '08 - George Jackson - I Want That Love Back.flac':
  219.  Metadata:
  220.     TOOL NAME       : Media Center
  221.     REPLAYGAIN_TRACK_GAIN: -1.07 dB
  222.     PEAK LEVEL (SAMPLE): -1,6 dB; -2,3 Left; -1,6 Right
  223.     VOLUME LEVEL (R128): -6,0665998458862305
  224.     REPLAYGAIN_TRACK_PEAK: 0.832000
  225.     DYNAMIC RANGE (DR): 12
  226.     GENRE           : Blues
  227.     track           : 8
  228.     ARTIST          : George Jackson
  229.     PEAK LEVEL (R128): -1,6 dBTP; -2,3 Left; -1,6 Right
  230.     BPM             : 113
  231.     DYNAMIC RANGE (R128): 4,8111100196838379
  232.     ALBUM           : Mississippi Burnin' Blues
  233.    VOLUME LEVEL (REPLAYGAIN): -1,06659996509552
  234.    COMMENT         : Track 8; EAC (T&C In Burst Mode)
  235.    DATE            : 1993
  236.    TITLE           : I Want That Love Back
  237.  Duration: 00:03:59.71, start: 0.000000, bitrate: 834 kb/s
  238.    Stream #0:0: Audio: flac, 44100 Hz, stereo, s16
  239.    Side data:
  240.      replaygain: track gain - -1.070000, track peak - 0.000019, album gain - unknown, album peak - unknown,
  241.    Stream #0:1: Video: mjpeg, yuvj444p(pc, bt470bg/unknown/unknown), 300x300 [SAR 1:1 DAR 1:1], 90k tbr, 90k tbn, 90k tbc
  242.    Metadata:
  243.      comment         : Cover (front)
  244. Stream mapping:
  245.  Stream #0:0 -> #0:0 (flac (native) -> mp3 (libmp3lame))
  246. Press [q] to stop, [?] for help
  247. Output #0, mp3, to '08 - George Jackson - I Want That Love Back.mp3':
  248.  Metadata:
  249.    TOOL NAME       : Media Center
  250.    REPLAYGAIN_TRACK_GAIN: -1.07 dB
  251.    PEAK LEVEL (SAMPLE): -1,6 dB; -2,3 Left; -1,6 Right
  252.    VOLUME LEVEL (R128): -6,0665998458862305
  253.    REPLAYGAIN_TRACK_PEAK: 0.832000
  254.    DYNAMIC RANGE (DR): 12
  255.    TCON            : Blues
  256.    TRCK            : 8
  257.    TPE1            : George Jackson
  258.    PEAK LEVEL (R128): -1,6 dBTP; -2,3 Left; -1,6 Right
  259.    BPM             : 113
  260.    DYNAMIC RANGE (R128): 4,8111100196838379
  261.    TALB            : Mississippi Burnin' Blues
  262.     VOLUME LEVEL (REPLAYGAIN): -1,06659996509552
  263.     COMMENT         : Track 8; EAC (T&C In Burst Mode)
  264.     TDRC            : 1993
  265.     TIT2            : I Want That Love Back
  266.     TSSE            : Lavf58.20.100
  267.     Stream #0:0: Audio: mp3 (libmp3lame), 44100 Hz, stereo, s16p, 320 kb/s
  268.    Metadata:
  269.       encoder         : Lavc58.35.100 libmp3lame
  270.     Side data:
  271.       replaygain: track gain - -1.070000, track peak - 0.000019, album gain - unknown, album peak - unknown,
  272. size=    9367kB time=00:03:59.72 bitrate= 320.1kbits/s speed=36.1x    
  273. video:0kB audio:9365kB subtitle:0kB other streams:0kB global headers:0kB muxing overhead: 0.018081%
  274. ffmpeg version 4.1.1 Copyright (c) 2000-2019 the FFmpeg developers
  275.   built with gcc 8 (Debian 8.2.0-19)
  276.   configuration: --disable-decoder=amrnb --disable-decoder=libopenjpeg --disable-libopencv --disable-podpages --disable-sndio --disable-stripping --enable-libaom --enable-avfilter --enable-avresample --enable-gcrypt --enable-gnutls --enable-gpl --enable-libass --enable-libbluray --enable-libbs2b --enable-libcaca --enable-libcdio --enable-libcodec2 --enable-libfdk-aac --enable-libfontconfig --enable-libfreetype --enable-libfribidi --enable-libgme --enable-libgsm --enable-libilbc --enable-libkvazaar --enable-libmp3lame --enable-libopencore-amrnb --enable-libopencore-amrwb --enable-libopenh264 --enable-libopenjpeg --enable-libopenmpt --enable-libopus --enable-libpulse --enable-librubberband --enable-libshine --enable-libsnappy --enable-libsoxr --enable-libspeex --enable-libtesseract --enable-libtheora --enable-libvidstab --enable-libvo-amrwbenc --enable-libvorbis --enable-libvpx --enable-libx265 --enable-libxvid --enable-libzvbi --enable-nonfree --enable-opencl --enable-opengl --enable-postproc --enable-pthreads --enable-shared --enable-version3 --enable-libwebp --incdir=/usr/include/x86_64-linux-gnu --libdir=/usr/lib/x86_64-linux-gnu --prefix=/usr --toolchain=hardened --enable-frei0r --enable-chromaprint --enable-libx264 --enable-libiec61883 --enable-libdc1394 --enable-vaapi --enable-libmfx --disable-altivec --shlibdir=/usr/lib/x86_64-linux-gnu
  277.   libavutil      56. 22.100 / 56. 22.100
  278.   libavcodec     58. 35.100 / 58. 35.100
  279.   libavformat    58. 20.100 / 58. 20.100
  280.   libavdevice    58.  5.100 / 58.  5.100
  281.   libavfilter     7. 40.101 /  7. 40.101
  282.   libavresample   4.  0.  0 /  4.  0.  0
  283.   libswscale      5.  3.100 /  5.  3.100
  284.   libswresample   3.  3.100 /  3.  3.100
  285.   libpostproc    55.  3.100 / 55.  3.100
  286. Input #0, flac, from '09 - George Jackson - Strugglin' Lady.flac':
  287.  Metadata:
  288.     TOOL NAME       : Media Center
  289.     REPLAYGAIN_TRACK_GAIN: -1.80 dB
  290.     PEAK LEVEL (SAMPLE): -0,3 dB; -1,7 Left; -0,3 Right
  291.     VOLUME LEVEL (R128): -6,8012499809265137
  292.     REPLAYGAIN_TRACK_PEAK: 0.966000
  293.     DYNAMIC RANGE (DR): 13
  294.     GENRE           : Blues
  295.     track           : 9
  296.     ARTIST          : George Jackson
  297.     PEAK LEVEL (R128): -0,3 dBTP; -1,7 Left; -0,3 Right
  298.     BPM             : 93
  299.     DYNAMIC RANGE (R128): 2,6589300632476807
  300.     ALBUM           : Mississippi Burnin' Blues
  301.    VOLUME LEVEL (REPLAYGAIN): -1,8012499809265137
  302.    COMMENT         : Track 9; EAC (T&C In Burst Mode)
  303.    DATE            : 1993
  304.    TITLE           : Strugglin' Lady
  305.   Duration: 00:04:43.07, start: 0.000000, bitrate: 803 kb/s
  306.     Stream #0:0: Audio: flac, 44100 Hz, stereo, s16
  307.    Side data:
  308.       replaygain: track gain - -1.800000, track peak - 0.000022, album gain - unknown, album peak - unknown,
  309.     Stream #0:1: Video: mjpeg, yuvj444p(pc, bt470bg/unknown/unknown), 300x300 [SAR 1:1 DAR 1:1], 90k tbr, 90k tbn, 90k tbc
  310.    Metadata:
  311.       comment         : Cover (front)
  312. Stream mapping:
  313.   Stream #0:0 -> #0:0 (flac (native) -> mp3 (libmp3lame))
  314. Press [q] to stop, [?] for help
  315. Output #0, mp3, to '09 - George Jackson - Strugglin' Lady.mp3':
  316.  Metadata:
  317.     TOOL NAME       : Media Center
  318.     REPLAYGAIN_TRACK_GAIN: -1.80 dB
  319.     PEAK LEVEL (SAMPLE): -0,3 dB; -1,7 Left; -0,3 Right
  320.     VOLUME LEVEL (R128): -6,8012499809265137
  321.     REPLAYGAIN_TRACK_PEAK: 0.966000
  322.     DYNAMIC RANGE (DR): 13
  323.     TCON            : Blues
  324.     TRCK            : 9
  325.     TPE1            : George Jackson
  326.     PEAK LEVEL (R128): -0,3 dBTP; -1,7 Left; -0,3 Right
  327.     BPM             : 93
  328.     DYNAMIC RANGE (R128): 2,6589300632476807
  329.     TALB            : Mississippi Burnin' Blues
  330.    VOLUME LEVEL (REPLAYGAIN): -1,8012499809265137
  331.    COMMENT         : Track 9; EAC (T&C In Burst Mode)
  332.    TDRC            : 1993
  333.    TIT2            : Strugglin' Lady
  334.     TSSE            : Lavf58.20.100
  335.     Stream #0:0: Audio: mp3 (libmp3lame), 44100 Hz, stereo, s16p, 320 kb/s
  336.    Metadata:
  337.       encoder         : Lavc58.35.100 libmp3lame
  338.     Side data:
  339.       replaygain: track gain - -1.800000, track peak - 0.000022, album gain - unknown, album peak - unknown,
  340. size=   11061kB time=00:04:43.09 bitrate= 320.1kbits/s speed=35.2x    
  341. video:0kB audio:11059kB subtitle:0kB other streams:0kB global headers:0kB muxing overhead: 0.015268%
  342. ffmpeg version 4.1.1 Copyright (c) 2000-2019 the FFmpeg developers
  343.   built with gcc 8 (Debian 8.2.0-19)
  344.   configuration: --disable-decoder=amrnb --disable-decoder=libopenjpeg --disable-libopencv --disable-podpages --disable-sndio --disable-stripping --enable-libaom --enable-avfilter --enable-avresample --enable-gcrypt --enable-gnutls --enable-gpl --enable-libass --enable-libbluray --enable-libbs2b --enable-libcaca --enable-libcdio --enable-libcodec2 --enable-libfdk-aac --enable-libfontconfig --enable-libfreetype --enable-libfribidi --enable-libgme --enable-libgsm --enable-libilbc --enable-libkvazaar --enable-libmp3lame --enable-libopencore-amrnb --enable-libopencore-amrwb --enable-libopenh264 --enable-libopenjpeg --enable-libopenmpt --enable-libopus --enable-libpulse --enable-librubberband --enable-libshine --enable-libsnappy --enable-libsoxr --enable-libspeex --enable-libtesseract --enable-libtheora --enable-libvidstab --enable-libvo-amrwbenc --enable-libvorbis --enable-libvpx --enable-libx265 --enable-libxvid --enable-libzvbi --enable-nonfree --enable-opencl --enable-opengl --enable-postproc --enable-pthreads --enable-shared --enable-version3 --enable-libwebp --incdir=/usr/include/x86_64-linux-gnu --libdir=/usr/lib/x86_64-linux-gnu --prefix=/usr --toolchain=hardened --enable-frei0r --enable-chromaprint --enable-libx264 --enable-libiec61883 --enable-libdc1394 --enable-vaapi --enable-libmfx --disable-altivec --shlibdir=/usr/lib/x86_64-linux-gnu
  345.   libavutil      56. 22.100 / 56. 22.100
  346.   libavcodec     58. 35.100 / 58. 35.100
  347.   libavformat    58. 20.100 / 58. 20.100
  348.   libavdevice    58.  5.100 / 58.  5.100
  349.   libavfilter     7. 40.101 /  7. 40.101
  350.   libavresample   4.  0.  0 /  4.  0.  0
  351.   libswscale      5.  3.100 /  5.  3.100
  352.   libswresample   3.  3.100 /  3.  3.100
  353.   libpostproc    55.  3.100 / 55.  3.100
  354. Input #0, flac, from '10 - George Jackson - Heart To Heart Collect.flac':
  355.  Metadata:
  356.     TOOL NAME       : Media Center
  357.     REPLAYGAIN_TRACK_GAIN: -1.30 dB
  358.     PEAK LEVEL (SAMPLE): -1,1 dB; -2,1 Left; -1,1 Right
  359.     VOLUME LEVEL (R128): -6,2982797622680664
  360.     REPLAYGAIN_TRACK_PEAK: 0.881000
  361.     DYNAMIC RANGE (DR): 13
  362.     GENRE           : Blues
  363.     track           : 10
  364.     ARTIST          : George Jackson
  365.     PEAK LEVEL (R128): -1,0 dBTP; -2,0 Left; -1,0 Right
  366.     BPM             : 107
  367.     DYNAMIC RANGE (R128): 5,4288301467895508
  368.     ALBUM           : Mississippi Burnin' Blues
  369.    VOLUME LEVEL (REPLAYGAIN): -1,2982800006866455
  370.    COMMENT         : Track 10; EAC (T&C In Burst Mode)
  371.    DATE            : 1993
  372.    TITLE           : Heart To Heart Collect
  373.  Duration: 00:03:58.69, start: 0.000000, bitrate: 784 kb/s
  374.    Stream #0:0: Audio: flac, 44100 Hz, stereo, s16
  375.    Side data:
  376.      replaygain: track gain - -1.300000, track peak - 0.000021, album gain - unknown, album peak - unknown,
  377.    Stream #0:1: Video: mjpeg, yuvj444p(pc, bt470bg/unknown/unknown), 300x300 [SAR 1:1 DAR 1:1], 90k tbr, 90k tbn, 90k tbc
  378.    Metadata:
  379.      comment         : Cover (front)
  380. Stream mapping:
  381.  Stream #0:0 -> #0:0 (flac (native) -> mp3 (libmp3lame))
  382. Press [q] to stop, [?] for help
  383. Output #0, mp3, to '10 - George Jackson - Heart To Heart Collect.mp3':
  384.  Metadata:
  385.    TOOL NAME       : Media Center
  386.    REPLAYGAIN_TRACK_GAIN: -1.30 dB
  387.    PEAK LEVEL (SAMPLE): -1,1 dB; -2,1 Left; -1,1 Right
  388.    VOLUME LEVEL (R128): -6,2982797622680664
  389.    REPLAYGAIN_TRACK_PEAK: 0.881000
  390.    DYNAMIC RANGE (DR): 13
  391.    TCON            : Blues
  392.    TRCK            : 10
  393.    TPE1            : George Jackson
  394.    PEAK LEVEL (R128): -1,0 dBTP; -2,0 Left; -1,0 Right
  395.    BPM             : 107
  396.    DYNAMIC RANGE (R128): 5,4288301467895508
  397.    TALB            : Mississippi Burnin' Blues
  398.     VOLUME LEVEL (REPLAYGAIN): -1,2982800006866455
  399.     COMMENT         : Track 10; EAC (T&C In Burst Mode)
  400.     TDRC            : 1993
  401.     TIT2            : Heart To Heart Collect
  402.     TSSE            : Lavf58.20.100
  403.     Stream #0:0: Audio: mp3 (libmp3lame), 44100 Hz, stereo, s16p, 320 kb/s
  404.    Metadata:
  405.       encoder         : Lavc58.35.100 libmp3lame
  406.     Side data:
  407.       replaygain: track gain - -1.300000, track peak - 0.000021, album gain - unknown, album peak - unknown,
  408. size=    9327kB time=00:03:58.70 bitrate= 320.1kbits/s speed=35.2x    
  409. video:0kB audio:9326kB subtitle:0kB other streams:0kB global headers:0kB muxing overhead: 0.018211%
  410. ffmpeg version 4.1.1 Copyright (c) 2000-2019 the FFmpeg developers
  411.   built with gcc 8 (Debian 8.2.0-19)
  412.   configuration: --disable-decoder=amrnb --disable-decoder=libopenjpeg --disable-libopencv --disable-podpages --disable-sndio --disable-stripping --enable-libaom --enable-avfilter --enable-avresample --enable-gcrypt --enable-gnutls --enable-gpl --enable-libass --enable-libbluray --enable-libbs2b --enable-libcaca --enable-libcdio --enable-libcodec2 --enable-libfdk-aac --enable-libfontconfig --enable-libfreetype --enable-libfribidi --enable-libgme --enable-libgsm --enable-libilbc --enable-libkvazaar --enable-libmp3lame --enable-libopencore-amrnb --enable-libopencore-amrwb --enable-libopenh264 --enable-libopenjpeg --enable-libopenmpt --enable-libopus --enable-libpulse --enable-librubberband --enable-libshine --enable-libsnappy --enable-libsoxr --enable-libspeex --enable-libtesseract --enable-libtheora --enable-libvidstab --enable-libvo-amrwbenc --enable-libvorbis --enable-libvpx --enable-libx265 --enable-libxvid --enable-libzvbi --enable-nonfree --enable-opencl --enable-opengl --enable-postproc --enable-pthreads --enable-shared --enable-version3 --enable-libwebp --incdir=/usr/include/x86_64-linux-gnu --libdir=/usr/lib/x86_64-linux-gnu --prefix=/usr --toolchain=hardened --enable-frei0r --enable-chromaprint --enable-libx264 --enable-libiec61883 --enable-libdc1394 --enable-vaapi --enable-libmfx --disable-altivec --shlibdir=/usr/lib/x86_64-linux-gnu
  413.   libavutil      56. 22.100 / 56. 22.100
  414.   libavcodec     58. 35.100 / 58. 35.100
  415.   libavformat    58. 20.100 / 58. 20.100
  416.   libavdevice    58.  5.100 / 58.  5.100
  417.   libavfilter     7. 40.101 /  7. 40.101
  418.   libavresample   4.  0.  0 /  4.  0.  0
  419.   libswscale      5.  3.100 /  5.  3.100
  420.   libswresample   3.  3.100 /  3.  3.100
  421.   libpostproc    55.  3.100 / 55.  3.100
  422. Input #0, flac, from '14 - Sweet Miss Coffy - Baby Don't Do It.flac':
  423.  Metadata:
  424.     TOOL NAME       : Media Center
  425.     REPLAYGAIN_TRACK_GAIN: -2.95 dB
  426.     PEAK LEVEL (SAMPLE): -0,0 dB; -1,4 Left; -0,0 Right
  427.     VOLUME LEVEL (R128): -7,9491801261901856
  428.     REPLAYGAIN_TRACK_PEAK: 1.000000
  429.     DYNAMIC RANGE (DR): 13
  430.     GENRE           : Blues
  431.     track           : 14
  432.     ARTIST          : Sweet Miss Coffy
  433.     PEAK LEVEL (R128): +0,1 dBTP; -1,4 Left; +0,1 Right
  434.     BPM             : 100
  435.     DYNAMIC RANGE (R128): 2,3421599864959717
  436.     ALBUM           : Mississippi Burnin' Blues
  437.    VOLUME LEVEL (REPLAYGAIN): -2,9491798877716064
  438.    COMMENT         : Track 14; EAC (T&C In Burst Mode)
  439.    DATE            : 1993
  440.    TITLE           : Baby Don't Do It
  441.   Duration: 00:05:17.47, start: 0.000000, bitrate: 856 kb/s
  442.     Stream #0:0: Audio: flac, 44100 Hz, stereo, s16
  443.    Side data:
  444.       replaygain: track gain - -2.950000, track peak - 0.000023, album gain - unknown, album peak - unknown,
  445.     Stream #0:1: Video: mjpeg, yuvj444p(pc, bt470bg/unknown/unknown), 218x218 [SAR 1:1 DAR 1:1], 90k tbr, 90k tbn, 90k tbc
  446.    Metadata:
  447.       comment         : Cover (front)
  448. Stream mapping:
  449.   Stream #0:0 -> #0:0 (flac (native) -> mp3 (libmp3lame))
  450. Press [q] to stop, [?] for help
  451. Output #0, mp3, to '14 - Sweet Miss Coffy - Baby Don't Do It.mp3':
  452.  Metadata:
  453.     TOOL NAME       : Media Center
  454.     REPLAYGAIN_TRACK_GAIN: -2.95 dB
  455.     PEAK LEVEL (SAMPLE): -0,0 dB; -1,4 Left; -0,0 Right
  456.     VOLUME LEVEL (R128): -7,9491801261901856
  457.     REPLAYGAIN_TRACK_PEAK: 1.000000
  458.     DYNAMIC RANGE (DR): 13
  459.     TCON            : Blues
  460.     TRCK            : 14
  461.     TPE1            : Sweet Miss Coffy
  462.     PEAK LEVEL (R128): +0,1 dBTP; -1,4 Left; +0,1 Right
  463.     BPM             : 100
  464.     DYNAMIC RANGE (R128): 2,3421599864959717
  465.     TALB            : Mississippi Burnin' Blues
  466.    VOLUME LEVEL (REPLAYGAIN): -2,9491798877716064
  467.    COMMENT         : Track 14; EAC (T&C In Burst Mode)
  468.    TDRC            : 1993
  469.    TIT2            : Baby Don't Do It
  470.     TSSE            : Lavf58.20.100
  471.     Stream #0:0: Audio: mp3 (libmp3lame), 44100 Hz, stereo, s16p, 320 kb/s
  472.    Metadata:
  473.       encoder         : Lavc58.35.100 libmp3lame
  474.     Side data:
  475.       replaygain: track gain - -2.950000, track peak - 0.000023, album gain - unknown, album peak - unknown,
  476. [libmp3lame @ 0x558508e57200] Trying to remove 1152 samples, but the queue is empty
  477. size=   12405kB time=00:05:17.49 bitrate= 320.1kbits/s speed=35.3x    
  478. video:0kB audio:12403kB subtitle:0kB other streams:0kB global headers:0kB muxing overhead: 0.013661%

Quellcode

Hier kannst du den Code kopieren und ihn in deinen bevorzugten Editor einfügen. Alternativ kannst du den gesamten Eintrag auch als Datei herunterladen.