NoPaste

mp4 zu mkv

von willy4711

Dein Code:
  1. /media/HD753LJ/konvert$ /home/willy/Dokumente/Skripte/mp4mkv
  2. ffmpeg version 4.1.1 Copyright (c) 2000-2019 the FFmpeg developers
  3.   built with gcc 8 (Debian 8.2.0-19)
  4.   configuration: --disable-decoder=amrnb --disable-decoder=libopenjpeg --disable-libopencv --disable-podpages --disable-sndio --disable-stripping --enable-libaom --enable-avfilter --enable-avresample --enable-gcrypt --enable-gnutls --enable-gpl --enable-libass --enable-libbluray --enable-libbs2b --enable-libcaca --enable-libcdio --enable-libcodec2 --enable-libfdk-aac --enable-libfontconfig --enable-libfreetype --enable-libfribidi --enable-libgme --enable-libgsm --enable-libilbc --enable-libkvazaar --enable-libmp3lame --enable-libopencore-amrnb --enable-libopencore-amrwb --enable-libopenh264 --enable-libopenjpeg --enable-libopenmpt --enable-libopus --enable-libpulse --enable-librubberband --enable-libshine --enable-libsnappy --enable-libsoxr --enable-libspeex --enable-libtesseract --enable-libtheora --enable-libvidstab --enable-libvo-amrwbenc --enable-libvorbis --enable-libvpx --enable-libx265 --enable-libxvid --enable-libzvbi --enable-nonfree --enable-opencl --enable-opengl --enable-postproc --enable-pthreads --enable-shared --enable-version3 --enable-libwebp --incdir=/usr/include/x86_64-linux-gnu --libdir=/usr/lib/x86_64-linux-gnu --prefix=/usr --toolchain=hardened --enable-frei0r --enable-chromaprint --enable-libx264 --enable-libiec61883 --enable-libdc1394 --enable-vaapi --enable-libmfx --disable-altivec --shlibdir=/usr/lib/x86_64-linux-gnu
  5.   libavutil      56. 22.100 / 56. 22.100
  6.   libavcodec     58. 35.100 / 58. 35.100
  7.   libavformat    58. 20.100 / 58. 20.100
  8.   libavdevice    58.  5.100 / 58.  5.100
  9.   libavfilter     7. 40.101 /  7. 40.101
  10.   libavresample   4.  0.  0 /  4.  0.  0
  11.   libswscale      5.  3.100 /  5.  3.100
  12.   libswresample   3.  3.100 /  3.  3.100
  13.   libpostproc    55.  3.100 / 55.  3.100
  14. Input #0, mov,mp4,m4a,3gp,3g2,mj2, from 'Aspect Ratio Sample #3 (Academy Ratio - 4_3)-r6hXxE2-YK4.mp4':
  15.   Metadata:
  16.     major_brand     : isom
  17.     minor_version   : 512
  18.     compatible_brands: isomiso2avc1mp41
  19.     encoder         : Lavf58.20.100
  20.   Duration: 00:01:08.45, start: 0.000000, bitrate: 920 kb/s
  21.     Stream #0:0(und): Video: h264 (Main) (avc1 / 0x31637661), yuv420p(tv, smpte170m), 654x480 [SAR 1:1 DAR 109:80], 785 kb/s, 29.97 fps, 29.97 tbr, 30k tbn, 59.94 tbc (default)
  22.     Metadata:
  23.       handler_name    : ISO Media file produced by Google Inc. Created on: 10/26/2018.
  24.     Stream #0:1(eng): Audio: aac (LC) (mp4a / 0x6134706D), 44100 Hz, stereo, fltp, 127 kb/s (default)
  25.     Metadata:
  26.       handler_name    : ISO Media file produced by Google Inc. Created on: 10/26/2018.
  27. Overriding aspect ratio with stream copy may produce invalid files
  28. Output #0, matroska, to '/media/HD753LJ/konvert/16:9/Aspect Ratio Sample #3 (Academy Ratio - 4_3)-r6hXxE2-YK4.mp4.mkv':
  29.   Metadata:
  30.     major_brand     : isom
  31.     minor_version   : 512
  32.     compatible_brands: isomiso2avc1mp41
  33.     encoder         : Lavf58.20.100
  34.     Stream #0:0(und): Video: h264 (Main) (avc1 / 0x31637661), yuv420p(tv, smpte170m), 654x480 [SAR 1280:981 DAR 16:9], q=2-31, 785 kb/s, 29.97 fps, 29.97 tbr, 1k tbn, 30k tbc (default)
  35.     Metadata:
  36.       handler_name    : ISO Media file produced by Google Inc. Created on: 10/26/2018.
  37.     Stream #0:1(eng): Audio: aac (LC) ([255][0][0][0] / 0x00FF), 44100 Hz, stereo, fltp, 127 kb/s (default)
  38.     Metadata:
  39.       handler_name    : ISO Media file produced by Google Inc. Created on: 10/26/2018.
  40. Stream mapping:
  41.   Stream #0:0 -> #0:0 (copy)
  42.   Stream #0:1 -> #0:1 (copy)
  43. Press [q] to stop, [?] for help
  44. frame= 2050 fps=0.0 q=-1.0 Lsize=    7661kB time=00:01:08.42 bitrate= 917.1kbits/s speed=1.35e+03x    
  45. video:6555kB audio:1070kB subtitle:0kB other streams:0kB global headers:0kB muxing overhead: 0.474034%
  46. ffmpeg version 4.1.1 Copyright (c) 2000-2019 the FFmpeg developers
  47.   built with gcc 8 (Debian 8.2.0-19)
  48.   configuration: --disable-decoder=amrnb --disable-decoder=libopenjpeg --disable-libopencv --disable-podpages --disable-sndio --disable-stripping --enable-libaom --enable-avfilter --enable-avresample --enable-gcrypt --enable-gnutls --enable-gpl --enable-libass --enable-libbluray --enable-libbs2b --enable-libcaca --enable-libcdio --enable-libcodec2 --enable-libfdk-aac --enable-libfontconfig --enable-libfreetype --enable-libfribidi --enable-libgme --enable-libgsm --enable-libilbc --enable-libkvazaar --enable-libmp3lame --enable-libopencore-amrnb --enable-libopencore-amrwb --enable-libopenh264 --enable-libopenjpeg --enable-libopenmpt --enable-libopus --enable-libpulse --enable-librubberband --enable-libshine --enable-libsnappy --enable-libsoxr --enable-libspeex --enable-libtesseract --enable-libtheora --enable-libvidstab --enable-libvo-amrwbenc --enable-libvorbis --enable-libvpx --enable-libx265 --enable-libxvid --enable-libzvbi --enable-nonfree --enable-opencl --enable-opengl --enable-postproc --enable-pthreads --enable-shared --enable-version3 --enable-libwebp --incdir=/usr/include/x86_64-linux-gnu --libdir=/usr/lib/x86_64-linux-gnu --prefix=/usr --toolchain=hardened --enable-frei0r --enable-chromaprint --enable-libx264 --enable-libiec61883 --enable-libdc1394 --enable-vaapi --enable-libmfx --disable-altivec --shlibdir=/usr/lib/x86_64-linux-gnu
  49.   libavutil      56. 22.100 / 56. 22.100
  50.   libavcodec     58. 35.100 / 58. 35.100
  51.   libavformat    58. 20.100 / 58. 20.100
  52.   libavdevice    58.  5.100 / 58.  5.100
  53.   libavfilter     7. 40.101 /  7. 40.101
  54.   libavresample   4.  0.  0 /  4.  0.  0
  55.   libswscale      5.  3.100 /  5.  3.100
  56.   libswresample   3.  3.100 /  3.  3.100
  57.   libpostproc    55.  3.100 / 55.  3.100
  58. Input #0, mov,mp4,m4a,3gp,3g2,mj2, from 'BRANDHEISS Auch Engel können sterben.mp4':
  59.   Metadata:
  60.     major_brand     : isom
  61.     minor_version   : 512
  62.     compatible_brands: isomiso2avc1mp41
  63.     encoder         : Lavf58.20.100
  64.   Duration: 00:20:35.47, start: 0.000000, bitrate: 626 kb/s
  65.     Stream #0:0(und): Video: h264 (Main) (avc1 / 0x31637661), yuv420p, 640x480 [SAR 1:1 DAR 4:3], 495 kb/s, 25 fps, 25 tbr, 90k tbn, 50 tbc (default)
  66.     Metadata:
  67.       handler_name    : ISO Media file produced by Google Inc. Created on: 03/04/2019.
  68.     Stream #0:1(und): Audio: aac (LC) (mp4a / 0x6134706D), 44100 Hz, stereo, fltp, 125 kb/s (default)
  69.     Metadata:
  70.       handler_name    : SoundHandler
  71. Overriding aspect ratio with stream copy may produce invalid files
  72. Output #0, matroska, to '/media/HD753LJ/konvert/16:9/BRANDHEISS Auch Engel können sterben.mp4.mkv':
  73.   Metadata:
  74.     major_brand     : isom
  75.     minor_version   : 512
  76.     compatible_brands: isomiso2avc1mp41
  77.     encoder         : Lavf58.20.100
  78.     Stream #0:0(und): Video: h264 (Main) (avc1 / 0x31637661), yuv420p, 640x480 [SAR 4:3 DAR 16:9], q=2-31, 495 kb/s, 25 fps, 25 tbr, 1k tbn, 90k tbc (default)
  79.     Metadata:
  80.       handler_name    : ISO Media file produced by Google Inc. Created on: 03/04/2019.
  81.     Stream #0:1(und): Audio: aac (LC) ([255][0][0][0] / 0x00FF), 44100 Hz, stereo, fltp, 125 kb/s (default)
  82.     Metadata:
  83.       handler_name    : SoundHandler
  84. Stream mapping:
  85.   Stream #0:0 -> #0:0 (copy)
  86.   Stream #0:1 -> #0:1 (copy)
  87. Press [q] to stop, [?] for help
  88. frame=30884 fps=0.0 q=-1.0 Lsize=   94236kB time=00:20:35.44 bitrate= 624.9kbits/s speed=1.68e+03x    
  89. video:74700kB audio:18940kB subtitle:0kB other streams:0kB global headers:0kB muxing overhead: 0.636359%
  90. ffmpeg version 4.1.1 Copyright (c) 2000-2019 the FFmpeg developers
  91.   built with gcc 8 (Debian 8.2.0-19)
  92.   configuration: --disable-decoder=amrnb --disable-decoder=libopenjpeg --disable-libopencv --disable-podpages --disable-sndio --disable-stripping --enable-libaom --enable-avfilter --enable-avresample --enable-gcrypt --enable-gnutls --enable-gpl --enable-libass --enable-libbluray --enable-libbs2b --enable-libcaca --enable-libcdio --enable-libcodec2 --enable-libfdk-aac --enable-libfontconfig --enable-libfreetype --enable-libfribidi --enable-libgme --enable-libgsm --enable-libilbc --enable-libkvazaar --enable-libmp3lame --enable-libopencore-amrnb --enable-libopencore-amrwb --enable-libopenh264 --enable-libopenjpeg --enable-libopenmpt --enable-libopus --enable-libpulse --enable-librubberband --enable-libshine --enable-libsnappy --enable-libsoxr --enable-libspeex --enable-libtesseract --enable-libtheora --enable-libvidstab --enable-libvo-amrwbenc --enable-libvorbis --enable-libvpx --enable-libx265 --enable-libxvid --enable-libzvbi --enable-nonfree --enable-opencl --enable-opengl --enable-postproc --enable-pthreads --enable-shared --enable-version3 --enable-libwebp --incdir=/usr/include/x86_64-linux-gnu --libdir=/usr/lib/x86_64-linux-gnu --prefix=/usr --toolchain=hardened --enable-frei0r --enable-chromaprint --enable-libx264 --enable-libiec61883 --enable-libdc1394 --enable-vaapi --enable-libmfx --disable-altivec --shlibdir=/usr/lib/x86_64-linux-gnu
  93.   libavutil      56. 22.100 / 56. 22.100
  94.   libavcodec     58. 35.100 / 58. 35.100
  95.   libavformat    58. 20.100 / 58. 20.100
  96.   libavdevice    58.  5.100 / 58.  5.100
  97.   libavfilter     7. 40.101 /  7. 40.101
  98.   libavresample   4.  0.  0 /  4.  0.  0
  99.   libswscale      5.  3.100 /  5.  3.100
  100.   libswresample   3.  3.100 /  3.  3.100
  101.   libpostproc    55.  3.100 / 55.  3.100
  102. Input #0, mov,mp4,m4a,3gp,3g2,mj2, from 'Current Inductees sample video loop - 4_3 ratio-ggC5LuGfr2k.mp4':
  103.   Metadata:
  104.     major_brand     : isom
  105.     minor_version   : 512
  106.     compatible_brands: isomiso2avc1mp41
  107.     encoder         : Lavf58.20.100
  108.   Duration: 00:02:01.37, start: 0.000000, bitrate: 2658 kb/s
  109.     Stream #0:0(und): Video: h264 (High) (avc1 / 0x31637661), yuv420p, 1440x1080 [SAR 1:1 DAR 4:3], 2525 kb/s, 29.97 fps, 29.97 tbr, 90k tbn, 59.94 tbc (default)
  110.     Metadata:
  111.       handler_name    : VideoHandler
  112.     Stream #0:1(und): Audio: aac (LC) (mp4a / 0x6134706D), 44100 Hz, stereo, fltp, 125 kb/s (default)
  113.     Metadata:
  114.       handler_name    : SoundHandler
  115. Overriding aspect ratio with stream copy may produce invalid files
  116. Output #0, matroska, to '/media/HD753LJ/konvert/16:9/Current Inductees sample video loop - 4_3 ratio-ggC5LuGfr2k.mp4.mkv':
  117.   Metadata:
  118.     major_brand     : isom
  119.     minor_version   : 512
  120.     compatible_brands: isomiso2avc1mp41
  121.     encoder         : Lavf58.20.100
  122.     Stream #0:0(und): Video: h264 (High) (avc1 / 0x31637661), yuv420p, 1440x1080 [SAR 4:3 DAR 16:9], q=2-31, 2525 kb/s, 29.97 fps, 29.97 tbr, 1k tbn, 90k tbc (default)
  123.     Metadata:
  124.       handler_name    : VideoHandler
  125.     Stream #0:1(und): Audio: aac (LC) ([255][0][0][0] / 0x00FF), 44100 Hz, stereo, fltp, 125 kb/s (default)
  126.     Metadata:
  127.       handler_name    : SoundHandler
  128. Stream mapping:
  129.   Stream #0:0 -> #0:0 (copy)
  130.   Stream #0:1 -> #0:1 (copy)
  131. Press [q] to stop, [?] for help
  132. frame= 3636 fps=0.0 q=-1.0 Lsize=   39334kB time=00:02:01.34 bitrate=2655.4kbits/s speed= 755x    
  133. video:37409kB audio:1861kB subtitle:0kB other streams:0kB global headers:0kB muxing overhead: 0.163542%
  134. ffmpeg version 4.1.1 Copyright (c) 2000-2019 the FFmpeg developers
  135.   built with gcc 8 (Debian 8.2.0-19)
  136.   configuration: --disable-decoder=amrnb --disable-decoder=libopenjpeg --disable-libopencv --disable-podpages --disable-sndio --disable-stripping --enable-libaom --enable-avfilter --enable-avresample --enable-gcrypt --enable-gnutls --enable-gpl --enable-libass --enable-libbluray --enable-libbs2b --enable-libcaca --enable-libcdio --enable-libcodec2 --enable-libfdk-aac --enable-libfontconfig --enable-libfreetype --enable-libfribidi --enable-libgme --enable-libgsm --enable-libilbc --enable-libkvazaar --enable-libmp3lame --enable-libopencore-amrnb --enable-libopencore-amrwb --enable-libopenh264 --enable-libopenjpeg --enable-libopenmpt --enable-libopus --enable-libpulse --enable-librubberband --enable-libshine --enable-libsnappy --enable-libsoxr --enable-libspeex --enable-libtesseract --enable-libtheora --enable-libvidstab --enable-libvo-amrwbenc --enable-libvorbis --enable-libvpx --enable-libx265 --enable-libxvid --enable-libzvbi --enable-nonfree --enable-opencl --enable-opengl --enable-postproc --enable-pthreads --enable-shared --enable-version3 --enable-libwebp --incdir=/usr/include/x86_64-linux-gnu --libdir=/usr/lib/x86_64-linux-gnu --prefix=/usr --toolchain=hardened --enable-frei0r --enable-chromaprint --enable-libx264 --enable-libiec61883 --enable-libdc1394 --enable-vaapi --enable-libmfx --disable-altivec --shlibdir=/usr/lib/x86_64-linux-gnu
  137.   libavutil      56. 22.100 / 56. 22.100
  138.   libavcodec     58. 35.100 / 58. 35.100
  139.   libavformat    58. 20.100 / 58. 20.100
  140.   libavdevice    58.  5.100 / 58.  5.100
  141.   libavfilter     7. 40.101 /  7. 40.101
  142.   libavresample   4.  0.  0 /  4.  0.  0
  143.   libswscale      5.  3.100 /  5.  3.100
  144.   libswresample   3.  3.100 /  3.  3.100
  145.   libpostproc    55.  3.100 / 55.  3.100
  146. Input #0, mov,mp4,m4a,3gp,3g2,mj2, from 'Donovan Sample _ 4_3 aspect ratio-_OVRNbJGGTI.mp4':
  147.   Metadata:
  148.     major_brand     : isom
  149.     minor_version   : 512
  150.     compatible_brands: isomiso2avc1mp41
  151.     encoder         : Lavf58.20.100
  152.   Duration: 00:00:15.12, start: 0.000000, bitrate: 866 kb/s
  153.     Stream #0:0(und): Video: h264 (Main) (avc1 / 0x31637661), yuv420p(tv, bt709), 1280x720 [SAR 1:1 DAR 16:9], 738 kb/s, 23.98 fps, 23.98 tbr, 90k tbn, 47.95 tbc (default)
  154.     Metadata:
  155.       handler_name    : VideoHandler
  156.     Stream #0:1(und): Audio: aac (LC) (mp4a / 0x6134706D), 44100 Hz, stereo, fltp, 125 kb/s (default)
  157.     Metadata:
  158.       handler_name    : SoundHandler
  159. Overriding aspect ratio with stream copy may produce invalid files
  160. Output #0, matroska, to '/media/HD753LJ/konvert/16:9/Donovan Sample _ 4_3 aspect ratio-_OVRNbJGGTI.mp4.mkv':
  161.   Metadata:
  162.     major_brand     : isom
  163.     minor_version   : 512
  164.     compatible_brands: isomiso2avc1mp41
  165.     encoder         : Lavf58.20.100
  166.     Stream #0:0(und): Video: h264 (Main) (avc1 / 0x31637661), yuv420p(tv, bt709), 1280x720 [SAR 1:1 DAR 16:9], q=2-31, 738 kb/s, 23.98 fps, 23.98 tbr, 1k tbn, 90k tbc (default)
  167.     Metadata:
  168.       handler_name    : VideoHandler
  169.     Stream #0:1(und): Audio: aac (LC) ([255][0][0][0] / 0x00FF), 44100 Hz, stereo, fltp, 125 kb/s (default)
  170.     Metadata:
  171.       handler_name    : SoundHandler
  172. Stream mapping:
  173.   Stream #0:0 -> #0:0 (copy)
  174.   Stream #0:1 -> #0:1 (copy)
  175. Press [q] to stop, [?] for help
  176. frame=  360 fps=0.0 q=-1.0 Lsize=    1594kB time=00:00:15.09 bitrate= 865.1kbits/s speed=1.44e+03x    
  177. video:1354kB audio:232kB subtitle:0kB other streams:0kB global headers:0kB muxing overhead: 0.511877%
  178. ffmpeg version 4.1.1 Copyright (c) 2000-2019 the FFmpeg developers
  179.   built with gcc 8 (Debian 8.2.0-19)
  180.   configuration: --disable-decoder=amrnb --disable-decoder=libopenjpeg --disable-libopencv --disable-podpages --disable-sndio --disable-stripping --enable-libaom --enable-avfilter --enable-avresample --enable-gcrypt --enable-gnutls --enable-gpl --enable-libass --enable-libbluray --enable-libbs2b --enable-libcaca --enable-libcdio --enable-libcodec2 --enable-libfdk-aac --enable-libfontconfig --enable-libfreetype --enable-libfribidi --enable-libgme --enable-libgsm --enable-libilbc --enable-libkvazaar --enable-libmp3lame --enable-libopencore-amrnb --enable-libopencore-amrwb --enable-libopenh264 --enable-libopenjpeg --enable-libopenmpt --enable-libopus --enable-libpulse --enable-librubberband --enable-libshine --enable-libsnappy --enable-libsoxr --enable-libspeex --enable-libtesseract --enable-libtheora --enable-libvidstab --enable-libvo-amrwbenc --enable-libvorbis --enable-libvpx --enable-libx265 --enable-libxvid --enable-libzvbi --enable-nonfree --enable-opencl --enable-opengl --enable-postproc --enable-pthreads --enable-shared --enable-version3 --enable-libwebp --incdir=/usr/include/x86_64-linux-gnu --libdir=/usr/lib/x86_64-linux-gnu --prefix=/usr --toolchain=hardened --enable-frei0r --enable-chromaprint --enable-libx264 --enable-libiec61883 --enable-libdc1394 --enable-vaapi --enable-libmfx --disable-altivec --shlibdir=/usr/lib/x86_64-linux-gnu
  181.   libavutil      56. 22.100 / 56. 22.100
  182.   libavcodec     58. 35.100 / 58. 35.100
  183.   libavformat    58. 20.100 / 58. 20.100
  184.   libavdevice    58.  5.100 / 58.  5.100
  185.   libavfilter     7. 40.101 /  7. 40.101
  186.   libavresample   4.  0.  0 /  4.  0.  0
  187.   libswscale      5.  3.100 /  5.  3.100
  188.   libswresample   3.  3.100 /  3.  3.100
  189.   libpostproc    55.  3.100 / 55.  3.100
  190. Input #0, mov,mp4,m4a,3gp,3g2,mj2, from 'Panasonic Lumix G80 _ G85 sample movie - high sensitivity _ 4k _ 25p _ 6400 ISO-201855458.mp4':
  191.   Metadata:
  192.     major_brand     : isom
  193.     minor_version   : 512
  194.     compatible_brands: isomiso2avc1mp41
  195.     encoder         : Lavf58.20.100
  196.   Duration: 00:00:09.60, start: 0.000000, bitrate: 21671 kb/s
  197.     Stream #0:0(und): Video: h264 (High) (avc1 / 0x31637661), yuv420p(tv, bt709), 3840x2160 [SAR 1:1 DAR 16:9], 21588 kb/s, 25 fps, 25 tbr, 12800 tbn, 50 tbc (default)
  198.     Metadata:
  199.       handler_name    : VideoHandler
  200.     Stream #0:1(und): Audio: aac (LC) (mp4a / 0x6134706D), 48000 Hz, stereo, fltp, 256 kb/s (default)
  201.     Metadata:
  202.       handler_name    : SoundHandler
  203. Overriding aspect ratio with stream copy may produce invalid files
  204. Output #0, matroska, to '/media/HD753LJ/konvert/16:9/Panasonic Lumix G80 _ G85 sample movie - high sensitivity _ 4k _ 25p _ 6400 ISO-201855458.mp4.mkv':
  205.   Metadata:
  206.     major_brand     : isom
  207.     minor_version   : 512
  208.     compatible_brands: isomiso2avc1mp41
  209.     encoder         : Lavf58.20.100
  210.     Stream #0:0(und): Video: h264 (High) (avc1 / 0x31637661), yuv420p(tv, bt709), 3840x2160 [SAR 1:1 DAR 16:9], q=2-31, 21588 kb/s, 25 fps, 25 tbr, 1k tbn, 12800 tbc (default)
  211.     Metadata:
  212.       handler_name    : VideoHandler
  213.     Stream #0:1(und): Audio: aac (LC) ([255][0][0][0] / 0x00FF), 48000 Hz, stereo, fltp, 256 kb/s (default)
  214.     Metadata:
  215.       handler_name    : SoundHandler
  216. Stream mapping:
  217.   Stream #0:0 -> #0:0 (copy)
  218.   Stream #0:1 -> #0:1 (copy)
  219. Press [q] to stop, [?] for help
  220. frame=  238 fps=0.0 q=-1.0 Lsize=   25394kB time=00:00:09.57 bitrate=21717.5kbits/s speed= 126x    
  221. video:25088kB audio:300kB subtitle:0kB other streams:0kB global headers:0kB muxing overhead: 0.024479%

Quellcode

Hier kannst du den Code kopieren und ihn in deinen bevorzugten Editor einfügen. Alternativ kannst du den gesamten Eintrag auch als Datei herunterladen.