NoPaste

ffmulticonverter audio extraction

von willy4711

Dein Code:
  1. /usr/bin/ffmpeg -y -i "/media/HD753LJ/Import/Filme/Agitation Free - Shibuya Nights DVD 2014/VIDEO_TS/VIDEO_TS.BUP" -vn -acodec aac -b:a 32k "/home/willy/VIDEO_TS.aac"
  2. ffmpeg version 4.1.3 Copyright (c) 2000-2019 the FFmpeg developers
  3.   built with gcc 8 (Debian 8.3.0-4)
  4.   configuration: --disable-decoder=amrnb --disable-decoder=libopenjpeg --disable-libopencv --disable-outdev=sdl2 --disable-podpages --disable-sndio --disable-stripping --enable-libaom --enable-avfilter --enable-avresample --enable-gcrypt --enable-gnutls --enable-gpl --enable-libass --enable-libbluray --enable-libbs2b --enable-libcaca --enable-libcdio --enable-libcodec2 --enable-libfdk-aac --enable-libfontconfig --enable-libfreetype --enable-libfribidi --enable-libgme --enable-libgsm --enable-libilbc --enable-libkvazaar --enable-libmp3lame --enable-libopencore-amrnb --enable-libopencore-amrwb --enable-libopenh264 --enable-libopenjpeg --enable-libopenmpt --enable-libopus --enable-libpulse --enable-librubberband --enable-libshine --enable-libsnappy --enable-libsoxr --enable-libspeex --enable-libtesseract --enable-libtheora --enable-libvidstab --enable-libvo-amrwbenc --enable-libvorbis --enable-libvpx --enable-libx265 --enable-libxvid --enable-libzvbi --enable-nonfree --enable-opencl --enable-opengl --enable-postproc --enable-pthreads --enable-shared --enable-version3 --enable-libwebp --incdir=/usr/include/x86_64-linux-gnu --libdir=/usr/lib/x86_64-linux-gnu --prefix=/usr --toolchain=hardened --enable-frei0r --enable-chromaprint --enable-libx264 --enable-libiec61883 --enable-libdc1394 --enable-vaapi --enable-libmfx --disable-altivec --shlibdir=/usr/lib/x86_64-linux-gnu
  5.   libavutil      56. 22.100 / 56. 22.100
  6.   libavcodec     58. 35.100 / 58. 35.100
  7.   libavformat    58. 20.100 / 58. 20.100
  8.   libavdevice    58.  5.100 / 58.  5.100
  9.   libavfilter     7. 40.101 /  7. 40.101
  10.   libavresample   4.  0.  0 /  4.  0.  0
  11.   libswscale      5.  3.100 /  5.  3.100
  12.   libswresample   3.  3.100 /  3.  3.100
  13.   libpostproc    55.  3.100 / 55.  3.100
  14. /media/HD753LJ/Import/Filme/Agitation Free - Shibuya Nights DVD 2014/VIDEO_TS/VIDEO_TS.BUP: Invalid data found when processing input
  15.  
  16.  
  17. /usr/bin/ffmpeg -y -i "/media/HD753LJ/Import/Filme/Agitation Free - Shibuya Nights DVD 2014/VIDEO_TS/VIDEO_TS.IFO" -vn -acodec aac -b:a 32k "/home/willy/~VIDEO_TS.aac"
  18. ffmpeg version 4.1.3 Copyright (c) 2000-2019 the FFmpeg developers
  19.   built with gcc 8 (Debian 8.3.0-4)
  20.   configuration: --disable-decoder=amrnb --disable-decoder=libopenjpeg --disable-libopencv --disable-outdev=sdl2 --disable-podpages --disable-sndio --disable-stripping --enable-libaom --enable-avfilter --enable-avresample --enable-gcrypt --enable-gnutls --enable-gpl --enable-libass --enable-libbluray --enable-libbs2b --enable-libcaca --enable-libcdio --enable-libcodec2 --enable-libfdk-aac --enable-libfontconfig --enable-libfreetype --enable-libfribidi --enable-libgme --enable-libgsm --enable-libilbc --enable-libkvazaar --enable-libmp3lame --enable-libopencore-amrnb --enable-libopencore-amrwb --enable-libopenh264 --enable-libopenjpeg --enable-libopenmpt --enable-libopus --enable-libpulse --enable-librubberband --enable-libshine --enable-libsnappy --enable-libsoxr --enable-libspeex --enable-libtesseract --enable-libtheora --enable-libvidstab --enable-libvo-amrwbenc --enable-libvorbis --enable-libvpx --enable-libx265 --enable-libxvid --enable-libzvbi --enable-nonfree --enable-opencl --enable-opengl --enable-postproc --enable-pthreads --enable-shared --enable-version3 --enable-libwebp --incdir=/usr/include/x86_64-linux-gnu --libdir=/usr/lib/x86_64-linux-gnu --prefix=/usr --toolchain=hardened --enable-frei0r --enable-chromaprint --enable-libx264 --enable-libiec61883 --enable-libdc1394 --enable-vaapi --enable-libmfx --disable-altivec --shlibdir=/usr/lib/x86_64-linux-gnu
  21.   libavutil      56. 22.100 / 56. 22.100
  22.   libavcodec     58. 35.100 / 58. 35.100
  23.   libavformat    58. 20.100 / 58. 20.100
  24.   libavdevice    58.  5.100 / 58.  5.100
  25.   libavfilter     7. 40.101 /  7. 40.101
  26.   libavresample   4.  0.  0 /  4.  0.  0
  27.   libswscale      5.  3.100 /  5.  3.100
  28.   libswresample   3.  3.100 /  3.  3.100
  29.   libpostproc    55.  3.100 / 55.  3.100
  30. /media/HD753LJ/Import/Filme/Agitation Free - Shibuya Nights DVD 2014/VIDEO_TS/VIDEO_TS.IFO: Invalid data found when processing input
  31.  
  32.  
  33. /usr/bin/ffmpeg -y -i "/media/HD753LJ/Import/Filme/Agitation Free - Shibuya Nights DVD 2014/VIDEO_TS/VIDEO_TS.VOB" -vn -acodec aac -b:a 32k "/home/willy/~~VIDEO_TS.aac"
  34. ffmpeg version 4.1.3 Copyright (c) 2000-2019 the FFmpeg developers
  35.   built with gcc 8 (Debian 8.3.0-4)
  36.   configuration: --disable-decoder=amrnb --disable-decoder=libopenjpeg --disable-libopencv --disable-outdev=sdl2 --disable-podpages --disable-sndio --disable-stripping --enable-libaom --enable-avfilter --enable-avresample --enable-gcrypt --enable-gnutls --enable-gpl --enable-libass --enable-libbluray --enable-libbs2b --enable-libcaca --enable-libcdio --enable-libcodec2 --enable-libfdk-aac --enable-libfontconfig --enable-libfreetype --enable-libfribidi --enable-libgme --enable-libgsm --enable-libilbc --enable-libkvazaar --enable-libmp3lame --enable-libopencore-amrnb --enable-libopencore-amrwb --enable-libopenh264 --enable-libopenjpeg --enable-libopenmpt --enable-libopus --enable-libpulse --enable-librubberband --enable-libshine --enable-libsnappy --enable-libsoxr --enable-libspeex --enable-libtesseract --enable-libtheora --enable-libvidstab --enable-libvo-amrwbenc --enable-libvorbis --enable-libvpx --enable-libx265 --enable-libxvid --enable-libzvbi --enable-nonfree --enable-opencl --enable-opengl --enable-postproc --enable-pthreads --enable-shared --enable-version3 --enable-libwebp --incdir=/usr/include/x86_64-linux-gnu --libdir=/usr/lib/x86_64-linux-gnu --prefix=/usr --toolchain=hardened --enable-frei0r --enable-chromaprint --enable-libx264 --enable-libiec61883 --enable-libdc1394 --enable-vaapi --enable-libmfx --disable-altivec --shlibdir=/usr/lib/x86_64-linux-gnu
  37.   libavutil      56. 22.100 / 56. 22.100
  38.   libavcodec     58. 35.100 / 58. 35.100
  39.   libavformat    58. 20.100 / 58. 20.100
  40.   libavdevice    58.  5.100 / 58.  5.100
  41.   libavfilter     7. 40.101 /  7. 40.101
  42.   libavresample   4.  0.  0 /  4.  0.  0
  43.   libswscale      5.  3.100 /  5.  3.100
  44.   libswresample   3.  3.100 /  3.  3.100
  45.   libpostproc    55.  3.100 / 55.  3.100
  46. Input #0, mpeg, from '/media/HD753LJ/Import/Filme/Agitation Free - Shibuya Nights DVD 2014/VIDEO_TS/VIDEO_TS.VOB':
  47.  Duration: 00:00:00.10, start: 0.233567, bitrate: 9329 kb/s
  48.     Stream #0:0[0x1bf]: Data: dvd_nav_packet
  49.    Stream #0:1[0x1e0]: Video: mpeg2video (Main), yuv420p(tv, top first), 720x480 [SAR 8:9 DAR 4:3], 2000 kb/s, 29.97 fps, 29.97 tbr, 90k tbn, 59.94 tbc
  50.    Stream #0:2[0x20]: Subtitle: dvd_subtitle
  51. Output #0, adts, to '/home/willy/~~VIDEO_TS.aac':
  52. Output file #0 does not contain any stream
  53.  
  54.  
  55. /usr/bin/ffmpeg -y -i "/media/HD753LJ/Import/Filme/Agitation Free - Shibuya Nights DVD 2014/VIDEO_TS/VIDEO_TS-converted.flac" -vn -acodec aac -b:a 32k "/home/willy/VIDEO_TS-converted.aac"
  56. ffmpeg version 4.1.3 Copyright (c) 2000-2019 the FFmpeg developers
  57.   built with gcc 8 (Debian 8.3.0-4)
  58.   configuration: --disable-decoder=amrnb --disable-decoder=libopenjpeg --disable-libopencv --disable-outdev=sdl2 --disable-podpages --disable-sndio --disable-stripping --enable-libaom --enable-avfilter --enable-avresample --enable-gcrypt --enable-gnutls --enable-gpl --enable-libass --enable-libbluray --enable-libbs2b --enable-libcaca --enable-libcdio --enable-libcodec2 --enable-libfdk-aac --enable-libfontconfig --enable-libfreetype --enable-libfribidi --enable-libgme --enable-libgsm --enable-libilbc --enable-libkvazaar --enable-libmp3lame --enable-libopencore-amrnb --enable-libopencore-amrwb --enable-libopenh264 --enable-libopenjpeg --enable-libopenmpt --enable-libopus --enable-libpulse --enable-librubberband --enable-libshine --enable-libsnappy --enable-libsoxr --enable-libspeex --enable-libtesseract --enable-libtheora --enable-libvidstab --enable-libvo-amrwbenc --enable-libvorbis --enable-libvpx --enable-libx265 --enable-libxvid --enable-libzvbi --enable-nonfree --enable-opencl --enable-opengl --enable-postproc --enable-pthreads --enable-shared --enable-version3 --enable-libwebp --incdir=/usr/include/x86_64-linux-gnu --libdir=/usr/lib/x86_64-linux-gnu --prefix=/usr --toolchain=hardened --enable-frei0r --enable-chromaprint --enable-libx264 --enable-libiec61883 --enable-libdc1394 --enable-vaapi --enable-libmfx --disable-altivec --shlibdir=/usr/lib/x86_64-linux-gnu
  59.   libavutil      56. 22.100 / 56. 22.100
  60.   libavcodec     58. 35.100 / 58. 35.100
  61.   libavformat    58. 20.100 / 58. 20.100
  62.   libavdevice    58.  5.100 / 58.  5.100
  63.   libavfilter     7. 40.101 /  7. 40.101
  64.   libavresample   4.  0.  0 /  4.  0.  0
  65.   libswscale      5.  3.100 /  5.  3.100
  66.   libswresample   3.  3.100 /  3.  3.100
  67.   libpostproc    55.  3.100 / 55.  3.100
  68. [flac @ 0x55bc254088c0] Format flac detected only with low score of 1, misdetection possible!
  69. [flac @ 0x55bc254088c0] Could not find codec parameters for stream 0 (Audio: flac, 0 channels): unspecified sample format
  70. Consider increasing the value for the 'analyzeduration' and 'probesize' options
  71. Input #0, flac, from '/media/HD753LJ/Import/Filme/Agitation Free - Shibuya Nights DVD 2014/VIDEO_TS/VIDEO_TS-converted.flac':
  72.  Duration: N/A, bitrate: N/A
  73.     Stream #0:0: Audio: flac, 0 channels
  74. Output #0, adts, to '/home/willy/VIDEO_TS-converted.aac':
  75. Output file #0 does not contain any stream
  76.  
  77.  
  78. /usr/bin/ffmpeg -y -i "/media/HD753LJ/Import/Filme/Agitation Free - Shibuya Nights DVD 2014/VIDEO_TS/VTS_01_0.BUP" -vn -acodec aac -b:a 32k "/home/willy/VTS_01_0.aac"
  79. ffmpeg version 4.1.3 Copyright (c) 2000-2019 the FFmpeg developers
  80.   built with gcc 8 (Debian 8.3.0-4)
  81.   configuration: --disable-decoder=amrnb --disable-decoder=libopenjpeg --disable-libopencv --disable-outdev=sdl2 --disable-podpages --disable-sndio --disable-stripping --enable-libaom --enable-avfilter --enable-avresample --enable-gcrypt --enable-gnutls --enable-gpl --enable-libass --enable-libbluray --enable-libbs2b --enable-libcaca --enable-libcdio --enable-libcodec2 --enable-libfdk-aac --enable-libfontconfig --enable-libfreetype --enable-libfribidi --enable-libgme --enable-libgsm --enable-libilbc --enable-libkvazaar --enable-libmp3lame --enable-libopencore-amrnb --enable-libopencore-amrwb --enable-libopenh264 --enable-libopenjpeg --enable-libopenmpt --enable-libopus --enable-libpulse --enable-librubberband --enable-libshine --enable-libsnappy --enable-libsoxr --enable-libspeex --enable-libtesseract --enable-libtheora --enable-libvidstab --enable-libvo-amrwbenc --enable-libvorbis --enable-libvpx --enable-libx265 --enable-libxvid --enable-libzvbi --enable-nonfree --enable-opencl --enable-opengl --enable-postproc --enable-pthreads --enable-shared --enable-version3 --enable-libwebp --incdir=/usr/include/x86_64-linux-gnu --libdir=/usr/lib/x86_64-linux-gnu --prefix=/usr --toolchain=hardened --enable-frei0r --enable-chromaprint --enable-libx264 --enable-libiec61883 --enable-libdc1394 --enable-vaapi --enable-libmfx --disable-altivec --shlibdir=/usr/lib/x86_64-linux-gnu
  82.   libavutil      56. 22.100 / 56. 22.100
  83.   libavcodec     58. 35.100 / 58. 35.100
  84.   libavformat    58. 20.100 / 58. 20.100
  85.   libavdevice    58.  5.100 / 58.  5.100
  86.   libavfilter     7. 40.101 /  7. 40.101
  87.   libavresample   4.  0.  0 /  4.  0.  0
  88.   libswscale      5.  3.100 /  5.  3.100
  89.   libswresample   3.  3.100 /  3.  3.100
  90.   libpostproc    55.  3.100 / 55.  3.100
  91. /media/HD753LJ/Import/Filme/Agitation Free - Shibuya Nights DVD 2014/VIDEO_TS/VTS_01_0.BUP: Invalid data found when processing input
  92.  
  93.  
  94. /usr/bin/ffmpeg -y -i "/media/HD753LJ/Import/Filme/Agitation Free - Shibuya Nights DVD 2014/VIDEO_TS/VTS_01_0.IFO" -vn -acodec aac -b:a 32k "/home/willy/~VTS_01_0.aac"
  95. ffmpeg version 4.1.3 Copyright (c) 2000-2019 the FFmpeg developers
  96.   built with gcc 8 (Debian 8.3.0-4)
  97.   configuration: --disable-decoder=amrnb --disable-decoder=libopenjpeg --disable-libopencv --disable-outdev=sdl2 --disable-podpages --disable-sndio --disable-stripping --enable-libaom --enable-avfilter --enable-avresample --enable-gcrypt --enable-gnutls --enable-gpl --enable-libass --enable-libbluray --enable-libbs2b --enable-libcaca --enable-libcdio --enable-libcodec2 --enable-libfdk-aac --enable-libfontconfig --enable-libfreetype --enable-libfribidi --enable-libgme --enable-libgsm --enable-libilbc --enable-libkvazaar --enable-libmp3lame --enable-libopencore-amrnb --enable-libopencore-amrwb --enable-libopenh264 --enable-libopenjpeg --enable-libopenmpt --enable-libopus --enable-libpulse --enable-librubberband --enable-libshine --enable-libsnappy --enable-libsoxr --enable-libspeex --enable-libtesseract --enable-libtheora --enable-libvidstab --enable-libvo-amrwbenc --enable-libvorbis --enable-libvpx --enable-libx265 --enable-libxvid --enable-libzvbi --enable-nonfree --enable-opencl --enable-opengl --enable-postproc --enable-pthreads --enable-shared --enable-version3 --enable-libwebp --incdir=/usr/include/x86_64-linux-gnu --libdir=/usr/lib/x86_64-linux-gnu --prefix=/usr --toolchain=hardened --enable-frei0r --enable-chromaprint --enable-libx264 --enable-libiec61883 --enable-libdc1394 --enable-vaapi --enable-libmfx --disable-altivec --shlibdir=/usr/lib/x86_64-linux-gnu
  98.   libavutil      56. 22.100 / 56. 22.100
  99.   libavcodec     58. 35.100 / 58. 35.100
  100.   libavformat    58. 20.100 / 58. 20.100
  101.   libavdevice    58.  5.100 / 58.  5.100
  102.   libavfilter     7. 40.101 /  7. 40.101
  103.   libavresample   4.  0.  0 /  4.  0.  0
  104.   libswscale      5.  3.100 /  5.  3.100
  105.   libswresample   3.  3.100 /  3.  3.100
  106.   libpostproc    55.  3.100 / 55.  3.100
  107. /media/HD753LJ/Import/Filme/Agitation Free - Shibuya Nights DVD 2014/VIDEO_TS/VTS_01_0.IFO: Invalid data found when processing input
  108.  
  109.  
  110. /usr/bin/ffmpeg -y -i "/media/HD753LJ/Import/Filme/Agitation Free - Shibuya Nights DVD 2014/VIDEO_TS/VTS_01_0.VOB" -vn -acodec aac -b:a 32k "/home/willy/~~VTS_01_0.aac"
  111. ffmpeg version 4.1.3 Copyright (c) 2000-2019 the FFmpeg developers
  112.   built with gcc 8 (Debian 8.3.0-4)
  113.   configuration: --disable-decoder=amrnb --disable-decoder=libopenjpeg --disable-libopencv --disable-outdev=sdl2 --disable-podpages --disable-sndio --disable-stripping --enable-libaom --enable-avfilter --enable-avresample --enable-gcrypt --enable-gnutls --enable-gpl --enable-libass --enable-libbluray --enable-libbs2b --enable-libcaca --enable-libcdio --enable-libcodec2 --enable-libfdk-aac --enable-libfontconfig --enable-libfreetype --enable-libfribidi --enable-libgme --enable-libgsm --enable-libilbc --enable-libkvazaar --enable-libmp3lame --enable-libopencore-amrnb --enable-libopencore-amrwb --enable-libopenh264 --enable-libopenjpeg --enable-libopenmpt --enable-libopus --enable-libpulse --enable-librubberband --enable-libshine --enable-libsnappy --enable-libsoxr --enable-libspeex --enable-libtesseract --enable-libtheora --enable-libvidstab --enable-libvo-amrwbenc --enable-libvorbis --enable-libvpx --enable-libx265 --enable-libxvid --enable-libzvbi --enable-nonfree --enable-opencl --enable-opengl --enable-postproc --enable-pthreads --enable-shared --enable-version3 --enable-libwebp --incdir=/usr/include/x86_64-linux-gnu --libdir=/usr/lib/x86_64-linux-gnu --prefix=/usr --toolchain=hardened --enable-frei0r --enable-chromaprint --enable-libx264 --enable-libiec61883 --enable-libdc1394 --enable-vaapi --enable-libmfx --disable-altivec --shlibdir=/usr/lib/x86_64-linux-gnu
  114.   libavutil      56. 22.100 / 56. 22.100
  115.   libavcodec     58. 35.100 / 58. 35.100
  116.   libavformat    58. 20.100 / 58. 20.100
  117.   libavdevice    58.  5.100 / 58.  5.100
  118.   libavfilter     7. 40.101 /  7. 40.101
  119.   libavresample   4.  0.  0 /  4.  0.  0
  120.   libswscale      5.  3.100 /  5.  3.100
  121.   libswresample   3.  3.100 /  3.  3.100
  122.   libpostproc    55.  3.100 / 55.  3.100
  123. Input #0, mpeg, from '/media/HD753LJ/Import/Filme/Agitation Free - Shibuya Nights DVD 2014/VIDEO_TS/VTS_01_0.VOB':
  124.  Duration: 00:00:00.03, start: 0.300300, bitrate: 57940 kb/s
  125.     Stream #0:0[0x1bf]: Data: dvd_nav_packet
  126.    Stream #0:1[0x1e0]: Video: mpeg2video (Main), yuv420p(tv, smpte170m, progressive), 720x480 [SAR 32:27 DAR 16:9], 29.97 tbr, 90k tbn, 59.94 tbc
  127.    Stream #0:2[0x20]: Subtitle: dvd_subtitle
  128.    Stream #0:3[0x21]: Subtitle: dvd_subtitle
  129. Output #0, adts, to '/home/willy/~~VTS_01_0.aac':
  130. Output file #0 does not contain any stream
  131.  
  132.  
  133. /usr/bin/ffmpeg -y -i "/media/HD753LJ/Import/Filme/Agitation Free - Shibuya Nights DVD 2014/VIDEO_TS/VTS_01_1.VOB" -vn -acodec aac -b:a 32k "/home/willy/VTS_01_1.aac"
  134. ffmpeg version 4.1.3 Copyright (c) 2000-2019 the FFmpeg developers
  135.   built with gcc 8 (Debian 8.3.0-4)
  136.   configuration: --disable-decoder=amrnb --disable-decoder=libopenjpeg --disable-libopencv --disable-outdev=sdl2 --disable-podpages --disable-sndio --disable-stripping --enable-libaom --enable-avfilter --enable-avresample --enable-gcrypt --enable-gnutls --enable-gpl --enable-libass --enable-libbluray --enable-libbs2b --enable-libcaca --enable-libcdio --enable-libcodec2 --enable-libfdk-aac --enable-libfontconfig --enable-libfreetype --enable-libfribidi --enable-libgme --enable-libgsm --enable-libilbc --enable-libkvazaar --enable-libmp3lame --enable-libopencore-amrnb --enable-libopencore-amrwb --enable-libopenh264 --enable-libopenjpeg --enable-libopenmpt --enable-libopus --enable-libpulse --enable-librubberband --enable-libshine --enable-libsnappy --enable-libsoxr --enable-libspeex --enable-libtesseract --enable-libtheora --enable-libvidstab --enable-libvo-amrwbenc --enable-libvorbis --enable-libvpx --enable-libx265 --enable-libxvid --enable-libzvbi --enable-nonfree --enable-opencl --enable-opengl --enable-postproc --enable-pthreads --enable-shared --enable-version3 --enable-libwebp --incdir=/usr/include/x86_64-linux-gnu --libdir=/usr/lib/x86_64-linux-gnu --prefix=/usr --toolchain=hardened --enable-frei0r --enable-chromaprint --enable-libx264 --enable-libiec61883 --enable-libdc1394 --enable-vaapi --enable-libmfx --disable-altivec --shlibdir=/usr/lib/x86_64-linux-gnu
  137.   libavutil      56. 22.100 / 56. 22.100
  138.   libavcodec     58. 35.100 / 58. 35.100
  139.   libavformat    58. 20.100 / 58. 20.100
  140.   libavdevice    58.  5.100 / 58.  5.100
  141.   libavfilter     7. 40.101 /  7. 40.101
  142.   libavresample   4.  0.  0 /  4.  0.  0
  143.   libswscale      5.  3.100 /  5.  3.100
  144.   libswresample   3.  3.100 /  3.  3.100
  145.   libpostproc    55.  3.100 / 55.  3.100
  146. Input #0, mpeg, from '/media/HD753LJ/Import/Filme/Agitation Free - Shibuya Nights DVD 2014/VIDEO_TS/VTS_01_1.VOB':
  147.  Duration: 00:00:10.04, start: 0.300300, bitrate: 187 kb/s
  148.     Stream #0:0[0x1bf]: Data: dvd_nav_packet
  149.    Stream #0:1[0x1e0]: Video: mpeg2video (Main), yuv420p(tv, smpte170m, progressive), 720x480 [SAR 32:27 DAR 16:9], 29.97 fps, 29.97 tbr, 90k tbn, 59.94 tbc
  150. Output #0, adts, to '/home/willy/VTS_01_1.aac':
  151. Output file #0 does not contain any stream
  152.  
  153.  
  154. /usr/bin/ffmpeg -y -i "/media/HD753LJ/Import/Filme/Agitation Free - Shibuya Nights DVD 2014/VIDEO_TS/VTS_02_0.BUP" -vn -acodec aac -b:a 32k "/home/willy/VTS_02_0.aac"
  155. ffmpeg version 4.1.3 Copyright (c) 2000-2019 the FFmpeg developers
  156.   built with gcc 8 (Debian 8.3.0-4)
  157.   configuration: --disable-decoder=amrnb --disable-decoder=libopenjpeg --disable-libopencv --disable-outdev=sdl2 --disable-podpages --disable-sndio --disable-stripping --enable-libaom --enable-avfilter --enable-avresample --enable-gcrypt --enable-gnutls --enable-gpl --enable-libass --enable-libbluray --enable-libbs2b --enable-libcaca --enable-libcdio --enable-libcodec2 --enable-libfdk-aac --enable-libfontconfig --enable-libfreetype --enable-libfribidi --enable-libgme --enable-libgsm --enable-libilbc --enable-libkvazaar --enable-libmp3lame --enable-libopencore-amrnb --enable-libopencore-amrwb --enable-libopenh264 --enable-libopenjpeg --enable-libopenmpt --enable-libopus --enable-libpulse --enable-librubberband --enable-libshine --enable-libsnappy --enable-libsoxr --enable-libspeex --enable-libtesseract --enable-libtheora --enable-libvidstab --enable-libvo-amrwbenc --enable-libvorbis --enable-libvpx --enable-libx265 --enable-libxvid --enable-libzvbi --enable-nonfree --enable-opencl --enable-opengl --enable-postproc --enable-pthreads --enable-shared --enable-version3 --enable-libwebp --incdir=/usr/include/x86_64-linux-gnu --libdir=/usr/lib/x86_64-linux-gnu --prefix=/usr --toolchain=hardened --enable-frei0r --enable-chromaprint --enable-libx264 --enable-libiec61883 --enable-libdc1394 --enable-vaapi --enable-libmfx --disable-altivec --shlibdir=/usr/lib/x86_64-linux-gnu
  158.   libavutil      56. 22.100 / 56. 22.100
  159.   libavcodec     58. 35.100 / 58. 35.100
  160.   libavformat    58. 20.100 / 58. 20.100
  161.   libavdevice    58.  5.100 / 58.  5.100
  162.   libavfilter     7. 40.101 /  7. 40.101
  163.   libavresample   4.  0.  0 /  4.  0.  0
  164.   libswscale      5.  3.100 /  5.  3.100
  165.   libswresample   3.  3.100 /  3.  3.100
  166.   libpostproc    55.  3.100 / 55.  3.100
  167. /media/HD753LJ/Import/Filme/Agitation Free - Shibuya Nights DVD 2014/VIDEO_TS/VTS_02_0.BUP: Invalid data found when processing input
  168.  
  169.  
  170. /usr/bin/ffmpeg -y -i "/media/HD753LJ/Import/Filme/Agitation Free - Shibuya Nights DVD 2014/VIDEO_TS/VTS_02_0.IFO" -vn -acodec aac -b:a 32k "/home/willy/~VTS_02_0.aac"
  171. ffmpeg version 4.1.3 Copyright (c) 2000-2019 the FFmpeg developers
  172.   built with gcc 8 (Debian 8.3.0-4)
  173.   configuration: --disable-decoder=amrnb --disable-decoder=libopenjpeg --disable-libopencv --disable-outdev=sdl2 --disable-podpages --disable-sndio --disable-stripping --enable-libaom --enable-avfilter --enable-avresample --enable-gcrypt --enable-gnutls --enable-gpl --enable-libass --enable-libbluray --enable-libbs2b --enable-libcaca --enable-libcdio --enable-libcodec2 --enable-libfdk-aac --enable-libfontconfig --enable-libfreetype --enable-libfribidi --enable-libgme --enable-libgsm --enable-libilbc --enable-libkvazaar --enable-libmp3lame --enable-libopencore-amrnb --enable-libopencore-amrwb --enable-libopenh264 --enable-libopenjpeg --enable-libopenmpt --enable-libopus --enable-libpulse --enable-librubberband --enable-libshine --enable-libsnappy --enable-libsoxr --enable-libspeex --enable-libtesseract --enable-libtheora --enable-libvidstab --enable-libvo-amrwbenc --enable-libvorbis --enable-libvpx --enable-libx265 --enable-libxvid --enable-libzvbi --enable-nonfree --enable-opencl --enable-opengl --enable-postproc --enable-pthreads --enable-shared --enable-version3 --enable-libwebp --incdir=/usr/include/x86_64-linux-gnu --libdir=/usr/lib/x86_64-linux-gnu --prefix=/usr --toolchain=hardened --enable-frei0r --enable-chromaprint --enable-libx264 --enable-libiec61883 --enable-libdc1394 --enable-vaapi --enable-libmfx --disable-altivec --shlibdir=/usr/lib/x86_64-linux-gnu
  174.   libavutil      56. 22.100 / 56. 22.100
  175.   libavcodec     58. 35.100 / 58. 35.100
  176.   libavformat    58. 20.100 / 58. 20.100
  177.   libavdevice    58.  5.100 / 58.  5.100
  178.   libavfilter     7. 40.101 /  7. 40.101
  179.   libavresample   4.  0.  0 /  4.  0.  0
  180.   libswscale      5.  3.100 /  5.  3.100
  181.   libswresample   3.  3.100 /  3.  3.100
  182.   libpostproc    55.  3.100 / 55.  3.100
  183. /media/HD753LJ/Import/Filme/Agitation Free - Shibuya Nights DVD 2014/VIDEO_TS/VTS_02_0.IFO: Invalid data found when processing input
  184.  
  185.  
  186. /usr/bin/ffmpeg -y -i "/media/HD753LJ/Import/Filme/Agitation Free - Shibuya Nights DVD 2014/VIDEO_TS/VTS_02_0.VOB" -vn -acodec aac -b:a 32k "/home/willy/~~VTS_02_0.aac"
  187. ffmpeg version 4.1.3 Copyright (c) 2000-2019 the FFmpeg developers
  188.   built with gcc 8 (Debian 8.3.0-4)
  189.   configuration: --disable-decoder=amrnb --disable-decoder=libopenjpeg --disable-libopencv --disable-outdev=sdl2 --disable-podpages --disable-sndio --disable-stripping --enable-libaom --enable-avfilter --enable-avresample --enable-gcrypt --enable-gnutls --enable-gpl --enable-libass --enable-libbluray --enable-libbs2b --enable-libcaca --enable-libcdio --enable-libcodec2 --enable-libfdk-aac --enable-libfontconfig --enable-libfreetype --enable-libfribidi --enable-libgme --enable-libgsm --enable-libilbc --enable-libkvazaar --enable-libmp3lame --enable-libopencore-amrnb --enable-libopencore-amrwb --enable-libopenh264 --enable-libopenjpeg --enable-libopenmpt --enable-libopus --enable-libpulse --enable-librubberband --enable-libshine --enable-libsnappy --enable-libsoxr --enable-libspeex --enable-libtesseract --enable-libtheora --enable-libvidstab --enable-libvo-amrwbenc --enable-libvorbis --enable-libvpx --enable-libx265 --enable-libxvid --enable-libzvbi --enable-nonfree --enable-opencl --enable-opengl --enable-postproc --enable-pthreads --enable-shared --enable-version3 --enable-libwebp --incdir=/usr/include/x86_64-linux-gnu --libdir=/usr/lib/x86_64-linux-gnu --prefix=/usr --toolchain=hardened --enable-frei0r --enable-chromaprint --enable-libx264 --enable-libiec61883 --enable-libdc1394 --enable-vaapi --enable-libmfx --disable-altivec --shlibdir=/usr/lib/x86_64-linux-gnu
  190.   libavutil      56. 22.100 / 56. 22.100
  191.   libavcodec     58. 35.100 / 58. 35.100
  192.   libavformat    58. 20.100 / 58. 20.100
  193.   libavdevice    58.  5.100 / 58.  5.100
  194.   libavfilter     7. 40.101 /  7. 40.101
  195.   libavresample   4.  0.  0 /  4.  0.  0
  196.   libswscale      5.  3.100 /  5.  3.100
  197.   libswresample   3.  3.100 /  3.  3.100
  198.   libpostproc    55.  3.100 / 55.  3.100
  199. Input #0, mpeg, from '/media/HD753LJ/Import/Filme/Agitation Free - Shibuya Nights DVD 2014/VIDEO_TS/VTS_02_0.VOB':
  200.  Duration: 00:00:00.10, start: 0.233567, bitrate: 9329 kb/s
  201.     Stream #0:0[0x1bf]: Data: dvd_nav_packet
  202.    Stream #0:1[0x1e0]: Video: mpeg2video (Main), yuv420p(tv, top first), 720x480 [SAR 8:9 DAR 4:3], 2000 kb/s, 29.97 fps, 29.97 tbr, 90k tbn, 59.94 tbc
  203.    Stream #0:2[0x20]: Subtitle: dvd_subtitle
  204. Output #0, adts, to '/home/willy/~~VTS_02_0.aac':
  205. Output file #0 does not contain any stream
  206.  
  207.  
  208. /usr/bin/ffmpeg -y -i "/media/HD753LJ/Import/Filme/Agitation Free - Shibuya Nights DVD 2014/VIDEO_TS/VTS_02_1.VOB" -vn -acodec aac -b:a 32k "/home/willy/VTS_02_1.aac"
  209. ffmpeg version 4.1.3 Copyright (c) 2000-2019 the FFmpeg developers
  210.   built with gcc 8 (Debian 8.3.0-4)
  211.   configuration: --disable-decoder=amrnb --disable-decoder=libopenjpeg --disable-libopencv --disable-outdev=sdl2 --disable-podpages --disable-sndio --disable-stripping --enable-libaom --enable-avfilter --enable-avresample --enable-gcrypt --enable-gnutls --enable-gpl --enable-libass --enable-libbluray --enable-libbs2b --enable-libcaca --enable-libcdio --enable-libcodec2 --enable-libfdk-aac --enable-libfontconfig --enable-libfreetype --enable-libfribidi --enable-libgme --enable-libgsm --enable-libilbc --enable-libkvazaar --enable-libmp3lame --enable-libopencore-amrnb --enable-libopencore-amrwb --enable-libopenh264 --enable-libopenjpeg --enable-libopenmpt --enable-libopus --enable-libpulse --enable-librubberband --enable-libshine --enable-libsnappy --enable-libsoxr --enable-libspeex --enable-libtesseract --enable-libtheora --enable-libvidstab --enable-libvo-amrwbenc --enable-libvorbis --enable-libvpx --enable-libx265 --enable-libxvid --enable-libzvbi --enable-nonfree --enable-opencl --enable-opengl --enable-postproc --enable-pthreads --enable-shared --enable-version3 --enable-libwebp --incdir=/usr/include/x86_64-linux-gnu --libdir=/usr/lib/x86_64-linux-gnu --prefix=/usr --toolchain=hardened --enable-frei0r --enable-chromaprint --enable-libx264 --enable-libiec61883 --enable-libdc1394 --enable-vaapi --enable-libmfx --disable-altivec --shlibdir=/usr/lib/x86_64-linux-gnu
  212.   libavutil      56. 22.100 / 56. 22.100
  213.   libavcodec     58. 35.100 / 58. 35.100
  214.   libavformat    58. 20.100 / 58. 20.100
  215.   libavdevice    58.  5.100 / 58.  5.100
  216.   libavfilter     7. 40.101 /  7. 40.101
  217.   libavresample   4.  0.  0 /  4.  0.  0
  218.   libswscale      5.  3.100 /  5.  3.100
  219.   libswresample   3.  3.100 /  3.  3.100
  220.   libpostproc    55.  3.100 / 55.  3.100
  221. Guessed Channel Layout for Input Stream #0.2 : stereo
  222. Input #0, mpeg, from '/media/HD753LJ/Import/Filme/Agitation Free - Shibuya Nights DVD 2014/VIDEO_TS/VTS_02_1.VOB':
  223.  Duration: 00:06:48.01, start: 0.300300, bitrate: 8793 kb/s
  224.     Stream #0:0[0x1bf]: Data: dvd_nav_packet
  225.    Stream #0:1[0x1e0]: Video: mpeg2video (Main), yuv420p(tv, smpte170m, progressive), 720x480 [SAR 32:27 DAR 16:9], 7112 kb/s, 29.97 fps, 29.97 tbr, 90k tbn, 59.94 tbc
  226.    Stream #0:2[0xa0]: Audio: pcm_dvd, 48000 Hz, stereo, s16, 1536 kb/s
  227. Stream mapping:
  228.   Stream #0:2 -> #0:0 (pcm_dvd (native) -> aac (native))
  229. Press [q] to stop, [?] for help
  230. Output #0, adts, to '/home/willy/VTS_02_1.aac':
  231.  Metadata:
  232.     encoder         : Lavf58.20.100
  233.     Stream #0:0: Audio: aac (LC), 48000 Hz, stereo, fltp (16 bit), 32 kb/s
  234.    Metadata:
  235.       encoder         : Lavc58.35.100 aac
  236. size=     207kB time=00:00:49.96 bitrate=  34.0kbits/s speed=99.9x    
  237. size=     256kB time=00:01:40.28 bitrate=  20.9kbits/s speed= 100x    
  238. size=     512kB time=00:02:27.15 bitrate=  28.5kbits/s speed=98.1x    
  239. size=     768kB time=00:03:15.77 bitrate=  32.1kbits/s speed=97.9x    
  240. size=    1024kB time=00:04:03.07 bitrate=  34.5kbits/s speed=97.2x    
  241. size=    1024kB time=00:04:51.09 bitrate=  28.8kbits/s speed=  97x    
  242. size=    1280kB time=00:05:36.85 bitrate=  31.1kbits/s speed=96.2x    
  243. size=    1536kB time=00:06:24.32 bitrate=  32.7kbits/s speed=96.1x    
  244. size=    1732kB time=00:06:46.91 bitrate=  34.9kbits/s speed=96.2x    
  245. video:0kB audio:1602kB subtitle:0kB other streams:0kB global headers:0kB muxing overhead: 8.141758%
  246. [aac @ 0x56137b6e4840] Qavg: 425.765
  247.  
  248.  
  249. /usr/bin/ffmpeg -y -i "/media/HD753LJ/Import/Filme/Agitation Free - Shibuya Nights DVD 2014/VIDEO_TS/VTS_03_0.BUP" -vn -acodec aac -b:a 32k "/home/willy/VTS_03_0.aac"
  250. ffmpeg version 4.1.3 Copyright (c) 2000-2019 the FFmpeg developers
  251.   built with gcc 8 (Debian 8.3.0-4)
  252.   configuration: --disable-decoder=amrnb --disable-decoder=libopenjpeg --disable-libopencv --disable-outdev=sdl2 --disable-podpages --disable-sndio --disable-stripping --enable-libaom --enable-avfilter --enable-avresample --enable-gcrypt --enable-gnutls --enable-gpl --enable-libass --enable-libbluray --enable-libbs2b --enable-libcaca --enable-libcdio --enable-libcodec2 --enable-libfdk-aac --enable-libfontconfig --enable-libfreetype --enable-libfribidi --enable-libgme --enable-libgsm --enable-libilbc --enable-libkvazaar --enable-libmp3lame --enable-libopencore-amrnb --enable-libopencore-amrwb --enable-libopenh264 --enable-libopenjpeg --enable-libopenmpt --enable-libopus --enable-libpulse --enable-librubberband --enable-libshine --enable-libsnappy --enable-libsoxr --enable-libspeex --enable-libtesseract --enable-libtheora --enable-libvidstab --enable-libvo-amrwbenc --enable-libvorbis --enable-libvpx --enable-libx265 --enable-libxvid --enable-libzvbi --enable-nonfree --enable-opencl --enable-opengl --enable-postproc --enable-pthreads --enable-shared --enable-version3 --enable-libwebp --incdir=/usr/include/x86_64-linux-gnu --libdir=/usr/lib/x86_64-linux-gnu --prefix=/usr --toolchain=hardened --enable-frei0r --enable-chromaprint --enable-libx264 --enable-libiec61883 --enable-libdc1394 --enable-vaapi --enable-libmfx --disable-altivec --shlibdir=/usr/lib/x86_64-linux-gnu
  253.   libavutil      56. 22.100 / 56. 22.100
  254.   libavcodec     58. 35.100 / 58. 35.100
  255.   libavformat    58. 20.100 / 58. 20.100
  256.   libavdevice    58.  5.100 / 58.  5.100
  257.   libavfilter     7. 40.101 /  7. 40.101
  258.   libavresample   4.  0.  0 /  4.  0.  0
  259.   libswscale      5.  3.100 /  5.  3.100
  260.   libswresample   3.  3.100 /  3.  3.100
  261.   libpostproc    55.  3.100 / 55.  3.100
  262. /media/HD753LJ/Import/Filme/Agitation Free - Shibuya Nights DVD 2014/VIDEO_TS/VTS_03_0.BUP: Invalid data found when processing input
  263.  
  264.  
  265. /usr/bin/ffmpeg -y -i "/media/HD753LJ/Import/Filme/Agitation Free - Shibuya Nights DVD 2014/VIDEO_TS/VTS_03_0.IFO" -vn -acodec aac -b:a 32k "/home/willy/~VTS_03_0.aac"
  266. ffmpeg version 4.1.3 Copyright (c) 2000-2019 the FFmpeg developers
  267.   built with gcc 8 (Debian 8.3.0-4)
  268.   configuration: --disable-decoder=amrnb --disable-decoder=libopenjpeg --disable-libopencv --disable-outdev=sdl2 --disable-podpages --disable-sndio --disable-stripping --enable-libaom --enable-avfilter --enable-avresample --enable-gcrypt --enable-gnutls --enable-gpl --enable-libass --enable-libbluray --enable-libbs2b --enable-libcaca --enable-libcdio --enable-libcodec2 --enable-libfdk-aac --enable-libfontconfig --enable-libfreetype --enable-libfribidi --enable-libgme --enable-libgsm --enable-libilbc --enable-libkvazaar --enable-libmp3lame --enable-libopencore-amrnb --enable-libopencore-amrwb --enable-libopenh264 --enable-libopenjpeg --enable-libopenmpt --enable-libopus --enable-libpulse --enable-librubberband --enable-libshine --enable-libsnappy --enable-libsoxr --enable-libspeex --enable-libtesseract --enable-libtheora --enable-libvidstab --enable-libvo-amrwbenc --enable-libvorbis --enable-libvpx --enable-libx265 --enable-libxvid --enable-libzvbi --enable-nonfree --enable-opencl --enable-opengl --enable-postproc --enable-pthreads --enable-shared --enable-version3 --enable-libwebp --incdir=/usr/include/x86_64-linux-gnu --libdir=/usr/lib/x86_64-linux-gnu --prefix=/usr --toolchain=hardened --enable-frei0r --enable-chromaprint --enable-libx264 --enable-libiec61883 --enable-libdc1394 --enable-vaapi --enable-libmfx --disable-altivec --shlibdir=/usr/lib/x86_64-linux-gnu
  269.   libavutil      56. 22.100 / 56. 22.100
  270.   libavcodec     58. 35.100 / 58. 35.100
  271.   libavformat    58. 20.100 / 58. 20.100
  272.   libavdevice    58.  5.100 / 58.  5.100
  273.   libavfilter     7. 40.101 /  7. 40.101
  274.   libavresample   4.  0.  0 /  4.  0.  0
  275.   libswscale      5.  3.100 /  5.  3.100
  276.   libswresample   3.  3.100 /  3.  3.100
  277.   libpostproc    55.  3.100 / 55.  3.100
  278. /media/HD753LJ/Import/Filme/Agitation Free - Shibuya Nights DVD 2014/VIDEO_TS/VTS_03_0.IFO: Invalid data found when processing input
  279.  
  280.  
  281. /usr/bin/ffmpeg -y -i "/media/HD753LJ/Import/Filme/Agitation Free - Shibuya Nights DVD 2014/VIDEO_TS/VTS_03_0.VOB" -vn -acodec aac -b:a 32k "/home/willy/~~VTS_03_0.aac"
  282. ffmpeg version 4.1.3 Copyright (c) 2000-2019 the FFmpeg developers
  283.   built with gcc 8 (Debian 8.3.0-4)
  284.   configuration: --disable-decoder=amrnb --disable-decoder=libopenjpeg --disable-libopencv --disable-outdev=sdl2 --disable-podpages --disable-sndio --disable-stripping --enable-libaom --enable-avfilter --enable-avresample --enable-gcrypt --enable-gnutls --enable-gpl --enable-libass --enable-libbluray --enable-libbs2b --enable-libcaca --enable-libcdio --enable-libcodec2 --enable-libfdk-aac --enable-libfontconfig --enable-libfreetype --enable-libfribidi --enable-libgme --enable-libgsm --enable-libilbc --enable-libkvazaar --enable-libmp3lame --enable-libopencore-amrnb --enable-libopencore-amrwb --enable-libopenh264 --enable-libopenjpeg --enable-libopenmpt --enable-libopus --enable-libpulse --enable-librubberband --enable-libshine --enable-libsnappy --enable-libsoxr --enable-libspeex --enable-libtesseract --enable-libtheora --enable-libvidstab --enable-libvo-amrwbenc --enable-libvorbis --enable-libvpx --enable-libx265 --enable-libxvid --enable-libzvbi --enable-nonfree --enable-opencl --enable-opengl --enable-postproc --enable-pthreads --enable-shared --enable-version3 --enable-libwebp --incdir=/usr/include/x86_64-linux-gnu --libdir=/usr/lib/x86_64-linux-gnu --prefix=/usr --toolchain=hardened --enable-frei0r --enable-chromaprint --enable-libx264 --enable-libiec61883 --enable-libdc1394 --enable-vaapi --enable-libmfx --disable-altivec --shlibdir=/usr/lib/x86_64-linux-gnu
  285.   libavutil      56. 22.100 / 56. 22.100
  286.   libavcodec     58. 35.100 / 58. 35.100
  287.   libavformat    58. 20.100 / 58. 20.100
  288.   libavdevice    58.  5.100 / 58.  5.100
  289.   libavfilter     7. 40.101 /  7. 40.101
  290.   libavresample   4.  0.  0 /  4.  0.  0
  291.   libswscale      5.  3.100 /  5.  3.100
  292.   libswresample   3.  3.100 /  3.  3.100
  293.   libpostproc    55.  3.100 / 55.  3.100
  294. Input #0, mpeg, from '/media/HD753LJ/Import/Filme/Agitation Free - Shibuya Nights DVD 2014/VIDEO_TS/VTS_03_0.VOB':
  295.  Duration: 00:00:00.10, start: 0.233567, bitrate: 9329 kb/s
  296.     Stream #0:0[0x1bf]: Data: dvd_nav_packet
  297.    Stream #0:1[0x1e0]: Video: mpeg2video (Main), yuv420p(tv, top first), 720x480 [SAR 8:9 DAR 4:3], 2000 kb/s, 29.97 fps, 29.97 tbr, 90k tbn, 59.94 tbc
  298.    Stream #0:2[0x20]: Subtitle: dvd_subtitle
  299. Output #0, adts, to '/home/willy/~~VTS_03_0.aac':
  300. Output file #0 does not contain any stream
  301.  
  302.  
  303. /usr/bin/ffmpeg -y -i "/media/HD753LJ/Import/Filme/Agitation Free - Shibuya Nights DVD 2014/VIDEO_TS/VTS_03_1.VOB" -vn -acodec aac -b:a 32k "/home/willy/VTS_03_1.aac"
  304. ffmpeg version 4.1.3 Copyright (c) 2000-2019 the FFmpeg developers
  305.   built with gcc 8 (Debian 8.3.0-4)
  306.   configuration: --disable-decoder=amrnb --disable-decoder=libopenjpeg --disable-libopencv --disable-outdev=sdl2 --disable-podpages --disable-sndio --disable-stripping --enable-libaom --enable-avfilter --enable-avresample --enable-gcrypt --enable-gnutls --enable-gpl --enable-libass --enable-libbluray --enable-libbs2b --enable-libcaca --enable-libcdio --enable-libcodec2 --enable-libfdk-aac --enable-libfontconfig --enable-libfreetype --enable-libfribidi --enable-libgme --enable-libgsm --enable-libilbc --enable-libkvazaar --enable-libmp3lame --enable-libopencore-amrnb --enable-libopencore-amrwb --enable-libopenh264 --enable-libopenjpeg --enable-libopenmpt --enable-libopus --enable-libpulse --enable-librubberband --enable-libshine --enable-libsnappy --enable-libsoxr --enable-libspeex --enable-libtesseract --enable-libtheora --enable-libvidstab --enable-libvo-amrwbenc --enable-libvorbis --enable-libvpx --enable-libx265 --enable-libxvid --enable-libzvbi --enable-nonfree --enable-opencl --enable-opengl --enable-postproc --enable-pthreads --enable-shared --enable-version3 --enable-libwebp --incdir=/usr/include/x86_64-linux-gnu --libdir=/usr/lib/x86_64-linux-gnu --prefix=/usr --toolchain=hardened --enable-frei0r --enable-chromaprint --enable-libx264 --enable-libiec61883 --enable-libdc1394 --enable-vaapi --enable-libmfx --disable-altivec --shlibdir=/usr/lib/x86_64-linux-gnu
  307.   libavutil      56. 22.100 / 56. 22.100
  308.   libavcodec     58. 35.100 / 58. 35.100
  309.   libavformat    58. 20.100 / 58. 20.100
  310.   libavdevice    58.  5.100 / 58.  5.100
  311.   libavfilter     7. 40.101 /  7. 40.101
  312.   libavresample   4.  0.  0 /  4.  0.  0
  313.   libswscale      5.  3.100 /  5.  3.100
  314.   libswresample   3.  3.100 /  3.  3.100
  315.   libpostproc    55.  3.100 / 55.  3.100
  316. Guessed Channel Layout for Input Stream #0.2 : stereo
  317. Input #0, mpeg, from '/media/HD753LJ/Import/Filme/Agitation Free - Shibuya Nights DVD 2014/VIDEO_TS/VTS_03_1.VOB':
  318.  Duration: 00:08:29.61, start: 0.300300, bitrate: 8684 kb/s
  319.     Stream #0:0[0x1bf]: Data: dvd_nav_packet
  320.    Stream #0:1[0x1e0]: Video: mpeg2video (Main), yuv420p(tv, smpte170m, progressive), 720x480 [SAR 32:27 DAR 16:9], 7000 kb/s, 29.97 fps, 29.97 tbr, 90k tbn, 59.94 tbc
  321.    Stream #0:2[0xa0]: Audio: pcm_dvd, 48000 Hz, stereo, s16, 1536 kb/s
  322. Stream mapping:
  323.   Stream #0:2 -> #0:0 (pcm_dvd (native) -> aac (native))
  324. Press [q] to stop, [?] for help
  325. Output #0, adts, to '/home/willy/VTS_03_1.aac':
  326.  Metadata:
  327.     encoder         : Lavf58.20.100
  328.     Stream #0:0: Audio: aac (LC), 48000 Hz, stereo, fltp (16 bit), 32 kb/s
  329.    Metadata:
  330.       encoder         : Lavc58.35.100 aac
  331. size=     211kB time=00:00:49.81 bitrate=  34.7kbits/s speed=98.4x    
  332. size=     256kB time=00:01:38.75 bitrate=  21.2kbits/s speed=98.1x    
  333. size=     512kB time=00:02:28.26 bitrate=  28.3kbits/s speed=98.4x    
  334. size=     768kB time=00:03:18.89 bitrate=  31.6kbits/s speed=99.1x    
  335. size=    1024kB time=00:04:06.55 bitrate=  34.0kbits/s speed=98.2x    
  336. size=    1024kB time=00:04:54.97 bitrate=  28.4kbits/s speed=  98x    
  337. size=    1280kB time=00:05:43.23 bitrate=  30.5kbits/s speed=97.8x    
  338. size=    1536kB time=00:06:31.55 bitrate=  32.1kbits/s speed=97.6x    
  339. size=    1792kB time=00:07:18.87 bitrate=  33.4kbits/s speed=97.3x    
  340. size=    2048kB time=00:08:05.63 bitrate=  34.5kbits/s speed=96.9x    
  341. size=    2167kB time=00:08:28.52 bitrate=  34.9kbits/s speed=  97x    
  342. video:0kB audio:2004kB subtitle:0kB other streams:0kB global headers:0kB muxing overhead: 8.131237%
  343. [aac @ 0x55f737b033c0] Qavg: 326.497
  344.  
  345.  
  346. /usr/bin/ffmpeg -y -i "/media/HD753LJ/Import/Filme/Agitation Free - Shibuya Nights DVD 2014/VIDEO_TS/VTS_04_0.BUP" -vn -acodec aac -b:a 32k "/home/willy/VTS_04_0.aac"
  347. ffmpeg version 4.1.3 Copyright (c) 2000-2019 the FFmpeg developers
  348.   built with gcc 8 (Debian 8.3.0-4)
  349.   configuration: --disable-decoder=amrnb --disable-decoder=libopenjpeg --disable-libopencv --disable-outdev=sdl2 --disable-podpages --disable-sndio --disable-stripping --enable-libaom --enable-avfilter --enable-avresample --enable-gcrypt --enable-gnutls --enable-gpl --enable-libass --enable-libbluray --enable-libbs2b --enable-libcaca --enable-libcdio --enable-libcodec2 --enable-libfdk-aac --enable-libfontconfig --enable-libfreetype --enable-libfribidi --enable-libgme --enable-libgsm --enable-libilbc --enable-libkvazaar --enable-libmp3lame --enable-libopencore-amrnb --enable-libopencore-amrwb --enable-libopenh264 --enable-libopenjpeg --enable-libopenmpt --enable-libopus --enable-libpulse --enable-librubberband --enable-libshine --enable-libsnappy --enable-libsoxr --enable-libspeex --enable-libtesseract --enable-libtheora --enable-libvidstab --enable-libvo-amrwbenc --enable-libvorbis --enable-libvpx --enable-libx265 --enable-libxvid --enable-libzvbi --enable-nonfree --enable-opencl --enable-opengl --enable-postproc --enable-pthreads --enable-shared --enable-version3 --enable-libwebp --incdir=/usr/include/x86_64-linux-gnu --libdir=/usr/lib/x86_64-linux-gnu --prefix=/usr --toolchain=hardened --enable-frei0r --enable-chromaprint --enable-libx264 --enable-libiec61883 --enable-libdc1394 --enable-vaapi --enable-libmfx --disable-altivec --shlibdir=/usr/lib/x86_64-linux-gnu
  350.   libavutil      56. 22.100 / 56. 22.100
  351.   libavcodec     58. 35.100 / 58. 35.100
  352.   libavformat    58. 20.100 / 58. 20.100
  353.   libavdevice    58.  5.100 / 58.  5.100
  354.   libavfilter     7. 40.101 /  7. 40.101
  355.   libavresample   4.  0.  0 /  4.  0.  0
  356.   libswscale      5.  3.100 /  5.  3.100
  357.   libswresample   3.  3.100 /  3.  3.100
  358.   libpostproc    55.  3.100 / 55.  3.100
  359. /media/HD753LJ/Import/Filme/Agitation Free - Shibuya Nights DVD 2014/VIDEO_TS/VTS_04_0.BUP: Invalid data found when processing input
  360.  
  361.  
  362. /usr/bin/ffmpeg -y -i "/media/HD753LJ/Import/Filme/Agitation Free - Shibuya Nights DVD 2014/VIDEO_TS/VTS_04_0.IFO" -vn -acodec aac -b:a 32k "/home/willy/~VTS_04_0.aac"
  363. ffmpeg version 4.1.3 Copyright (c) 2000-2019 the FFmpeg developers
  364.   built with gcc 8 (Debian 8.3.0-4)
  365.   configuration: --disable-decoder=amrnb --disable-decoder=libopenjpeg --disable-libopencv --disable-outdev=sdl2 --disable-podpages --disable-sndio --disable-stripping --enable-libaom --enable-avfilter --enable-avresample --enable-gcrypt --enable-gnutls --enable-gpl --enable-libass --enable-libbluray --enable-libbs2b --enable-libcaca --enable-libcdio --enable-libcodec2 --enable-libfdk-aac --enable-libfontconfig --enable-libfreetype --enable-libfribidi --enable-libgme --enable-libgsm --enable-libilbc --enable-libkvazaar --enable-libmp3lame --enable-libopencore-amrnb --enable-libopencore-amrwb --enable-libopenh264 --enable-libopenjpeg --enable-libopenmpt --enable-libopus --enable-libpulse --enable-librubberband --enable-libshine --enable-libsnappy --enable-libsoxr --enable-libspeex --enable-libtesseract --enable-libtheora --enable-libvidstab --enable-libvo-amrwbenc --enable-libvorbis --enable-libvpx --enable-libx265 --enable-libxvid --enable-libzvbi --enable-nonfree --enable-opencl --enable-opengl --enable-postproc --enable-pthreads --enable-shared --enable-version3 --enable-libwebp --incdir=/usr/include/x86_64-linux-gnu --libdir=/usr/lib/x86_64-linux-gnu --prefix=/usr --toolchain=hardened --enable-frei0r --enable-chromaprint --enable-libx264 --enable-libiec61883 --enable-libdc1394 --enable-vaapi --enable-libmfx --disable-altivec --shlibdir=/usr/lib/x86_64-linux-gnu
  366.   libavutil      56. 22.100 / 56. 22.100
  367.   libavcodec     58. 35.100 / 58. 35.100
  368.   libavformat    58. 20.100 / 58. 20.100
  369.   libavdevice    58.  5.100 / 58.  5.100
  370.   libavfilter     7. 40.101 /  7. 40.101
  371.   libavresample   4.  0.  0 /  4.  0.  0
  372.   libswscale      5.  3.100 /  5.  3.100
  373.   libswresample   3.  3.100 /  3.  3.100
  374.   libpostproc    55.  3.100 / 55.  3.100
  375. /media/HD753LJ/Import/Filme/Agitation Free - Shibuya Nights DVD 2014/VIDEO_TS/VTS_04_0.IFO: Invalid data found when processing input
  376.  
  377.  
  378. /usr/bin/ffmpeg -y -i "/media/HD753LJ/Import/Filme/Agitation Free - Shibuya Nights DVD 2014/VIDEO_TS/VTS_04_0.VOB" -vn -acodec aac -b:a 32k "/home/willy/~~VTS_04_0.aac"
  379. ffmpeg version 4.1.3 Copyright (c) 2000-2019 the FFmpeg developers
  380.   built with gcc 8 (Debian 8.3.0-4)
  381.   configuration: --disable-decoder=amrnb --disable-decoder=libopenjpeg --disable-libopencv --disable-outdev=sdl2 --disable-podpages --disable-sndio --disable-stripping --enable-libaom --enable-avfilter --enable-avresample --enable-gcrypt --enable-gnutls --enable-gpl --enable-libass --enable-libbluray --enable-libbs2b --enable-libcaca --enable-libcdio --enable-libcodec2 --enable-libfdk-aac --enable-libfontconfig --enable-libfreetype --enable-libfribidi --enable-libgme --enable-libgsm --enable-libilbc --enable-libkvazaar --enable-libmp3lame --enable-libopencore-amrnb --enable-libopencore-amrwb --enable-libopenh264 --enable-libopenjpeg --enable-libopenmpt --enable-libopus --enable-libpulse --enable-librubberband --enable-libshine --enable-libsnappy --enable-libsoxr --enable-libspeex --enable-libtesseract --enable-libtheora --enable-libvidstab --enable-libvo-amrwbenc --enable-libvorbis --enable-libvpx --enable-libx265 --enable-libxvid --enable-libzvbi --enable-nonfree --enable-opencl --enable-opengl --enable-postproc --enable-pthreads --enable-shared --enable-version3 --enable-libwebp --incdir=/usr/include/x86_64-linux-gnu --libdir=/usr/lib/x86_64-linux-gnu --prefix=/usr --toolchain=hardened --enable-frei0r --enable-chromaprint --enable-libx264 --enable-libiec61883 --enable-libdc1394 --enable-vaapi --enable-libmfx --disable-altivec --shlibdir=/usr/lib/x86_64-linux-gnu
  382.   libavutil      56. 22.100 / 56. 22.100
  383.   libavcodec     58. 35.100 / 58. 35.100
  384.   libavformat    58. 20.100 / 58. 20.100
  385.   libavdevice    58.  5.100 / 58.  5.100
  386.   libavfilter     7. 40.101 /  7. 40.101
  387.   libavresample   4.  0.  0 /  4.  0.  0
  388.   libswscale      5.  3.100 /  5.  3.100
  389.   libswresample   3.  3.100 /  3.  3.100
  390.   libpostproc    55.  3.100 / 55.  3.100
  391. Input #0, mpeg, from '/media/HD753LJ/Import/Filme/Agitation Free - Shibuya Nights DVD 2014/VIDEO_TS/VTS_04_0.VOB':
  392.  Duration: 00:00:00.10, start: 0.233567, bitrate: 9329 kb/s
  393.     Stream #0:0[0x1bf]: Data: dvd_nav_packet
  394.    Stream #0:1[0x1e0]: Video: mpeg2video (Main), yuv420p(tv, top first), 720x480 [SAR 8:9 DAR 4:3], 2000 kb/s, 29.97 fps, 29.97 tbr, 90k tbn, 59.94 tbc
  395.    Stream #0:2[0x20]: Subtitle: dvd_subtitle
  396. Output #0, adts, to '/home/willy/~~VTS_04_0.aac':
  397. Output file #0 does not contain any stream
  398.  
  399.  
  400. /usr/bin/ffmpeg -y -i "/media/HD753LJ/Import/Filme/Agitation Free - Shibuya Nights DVD 2014/VIDEO_TS/VTS_04_1.VOB" -vn -acodec aac -b:a 32k "/home/willy/VTS_04_1.aac"
  401. ffmpeg version 4.1.3 Copyright (c) 2000-2019 the FFmpeg developers
  402.   built with gcc 8 (Debian 8.3.0-4)
  403.   configuration: --disable-decoder=amrnb --disable-decoder=libopenjpeg --disable-libopencv --disable-outdev=sdl2 --disable-podpages --disable-sndio --disable-stripping --enable-libaom --enable-avfilter --enable-avresample --enable-gcrypt --enable-gnutls --enable-gpl --enable-libass --enable-libbluray --enable-libbs2b --enable-libcaca --enable-libcdio --enable-libcodec2 --enable-libfdk-aac --enable-libfontconfig --enable-libfreetype --enable-libfribidi --enable-libgme --enable-libgsm --enable-libilbc --enable-libkvazaar --enable-libmp3lame --enable-libopencore-amrnb --enable-libopencore-amrwb --enable-libopenh264 --enable-libopenjpeg --enable-libopenmpt --enable-libopus --enable-libpulse --enable-librubberband --enable-libshine --enable-libsnappy --enable-libsoxr --enable-libspeex --enable-libtesseract --enable-libtheora --enable-libvidstab --enable-libvo-amrwbenc --enable-libvorbis --enable-libvpx --enable-libx265 --enable-libxvid --enable-libzvbi --enable-nonfree --enable-opencl --enable-opengl --enable-postproc --enable-pthreads --enable-shared --enable-version3 --enable-libwebp --incdir=/usr/include/x86_64-linux-gnu --libdir=/usr/lib/x86_64-linux-gnu --prefix=/usr --toolchain=hardened --enable-frei0r --enable-chromaprint --enable-libx264 --enable-libiec61883 --enable-libdc1394 --enable-vaapi --enable-libmfx --disable-altivec --shlibdir=/usr/lib/x86_64-linux-gnu
  404.   libavutil      56. 22.100 / 56. 22.100
  405.   libavcodec     58. 35.100 / 58. 35.100
  406.   libavformat    58. 20.100 / 58. 20.100
  407.   libavdevice    58.  5.100 / 58.  5.100
  408.   libavfilter     7. 40.101 /  7. 40.101
  409.   libavresample   4.  0.  0 /  4.  0.  0
  410.   libswscale      5.  3.100 /  5.  3.100
  411.   libswresample   3.  3.100 /  3.  3.100
  412.   libpostproc    55.  3.100 / 55.  3.100
  413. Guessed Channel Layout for Input Stream #0.2 : stereo
  414. Input #0, mpeg, from '/media/HD753LJ/Import/Filme/Agitation Free - Shibuya Nights DVD 2014/VIDEO_TS/VTS_04_1.VOB':
  415.  Duration: 00:08:14.03, start: 0.300300, bitrate: 8687 kb/s
  416.     Stream #0:0[0x1bf]: Data: dvd_nav_packet
  417.    Stream #0:1[0x1e0]: Video: mpeg2video (Main), yuv420p(tv, smpte170m, progressive), 720x480 [SAR 32:27 DAR 16:9], 7002 kb/s, 29.97 fps, 29.97 tbr, 90k tbn, 59.94 tbc
  418.    Stream #0:2[0xa0]: Audio: pcm_dvd, 48000 Hz, stereo, s16, 1536 kb/s
  419. Stream mapping:
  420.   Stream #0:2 -> #0:0 (pcm_dvd (native) -> aac (native))
  421. Press [q] to stop, [?] for help
  422. Output #0, adts, to '/home/willy/VTS_04_1.aac':
  423.  Metadata:
  424.     encoder         : Lavf58.20.100
  425.     Stream #0:0: Audio: aac (LC), 48000 Hz, stereo, fltp (16 bit), 32 kb/s
  426.    Metadata:
  427.       encoder         : Lavc58.35.100 aac
  428. size=     212kB time=00:00:49.66 bitrate=  35.0kbits/s speed=99.3x    
  429. size=     256kB time=00:01:36.74 bitrate=  21.7kbits/s speed=96.7x    
  430. size=     512kB time=00:02:25.89 bitrate=  28.7kbits/s speed=97.3x    
  431. size=     768kB time=00:03:14.71 bitrate=  32.3kbits/s speed=97.3x    
  432. size=    1024kB time=00:04:03.58 bitrate=  34.4kbits/s speed=97.4x    
  433. size=    1024kB time=00:04:50.36 bitrate=  28.9kbits/s speed=96.8x    
  434. size=    1280kB time=00:05:38.77 bitrate=  31.0kbits/s speed=96.8x    
  435. size=    1536kB time=00:06:27.15 bitrate=  32.5kbits/s speed=96.8x    
  436. size=    1792kB time=00:07:16.20 bitrate=  33.7kbits/s speed=96.9x    
  437. size=    2048kB time=00:08:03.73 bitrate=  34.7kbits/s speed=96.7x    
  438. size=    2084kB time=00:08:13.37 bitrate=  34.6kbits/s speed=97.2x    
  439. video:0kB audio:1926kB subtitle:0kB other streams:0kB global headers:0kB muxing overhead: 8.208225%
  440. [aac @ 0x565442950940] Qavg: 994.520
  441.  
  442.  
  443. /usr/bin/ffmpeg -y -i "/media/HD753LJ/Import/Filme/Agitation Free - Shibuya Nights DVD 2014/VIDEO_TS/VTS_05_0.BUP" -vn -acodec aac -b:a 32k "/home/willy/VTS_05_0.aac"
  444. ffmpeg version 4.1.3 Copyright (c) 2000-2019 the FFmpeg developers
  445.   built with gcc 8 (Debian 8.3.0-4)
  446.   configuration: --disable-decoder=amrnb --disable-decoder=libopenjpeg --disable-libopencv --disable-outdev=sdl2 --disable-podpages --disable-sndio --disable-stripping --enable-libaom --enable-avfilter --enable-avresample --enable-gcrypt --enable-gnutls --enable-gpl --enable-libass --enable-libbluray --enable-libbs2b --enable-libcaca --enable-libcdio --enable-libcodec2 --enable-libfdk-aac --enable-libfontconfig --enable-libfreetype --enable-libfribidi --enable-libgme --enable-libgsm --enable-libilbc --enable-libkvazaar --enable-libmp3lame --enable-libopencore-amrnb --enable-libopencore-amrwb --enable-libopenh264 --enable-libopenjpeg --enable-libopenmpt --enable-libopus --enable-libpulse --enable-librubberband --enable-libshine --enable-libsnappy --enable-libsoxr --enable-libspeex --enable-libtesseract --enable-libtheora --enable-libvidstab --enable-libvo-amrwbenc --enable-libvorbis --enable-libvpx --enable-libx265 --enable-libxvid --enable-libzvbi --enable-nonfree --enable-opencl --enable-opengl --enable-postproc --enable-pthreads --enable-shared --enable-version3 --enable-libwebp --incdir=/usr/include/x86_64-linux-gnu --libdir=/usr/lib/x86_64-linux-gnu --prefix=/usr --toolchain=hardened --enable-frei0r --enable-chromaprint --enable-libx264 --enable-libiec61883 --enable-libdc1394 --enable-vaapi --enable-libmfx --disable-altivec --shlibdir=/usr/lib/x86_64-linux-gnu
  447.   libavutil      56. 22.100 / 56. 22.100
  448.   libavcodec     58. 35.100 / 58. 35.100
  449.   libavformat    58. 20.100 / 58. 20.100
  450.   libavdevice    58.  5.100 / 58.  5.100
  451.   libavfilter     7. 40.101 /  7. 40.101
  452.   libavresample   4.  0.  0 /  4.  0.  0
  453.   libswscale      5.  3.100 /  5.  3.100
  454.   libswresample   3.  3.100 /  3.  3.100
  455.   libpostproc    55.  3.100 / 55.  3.100
  456. /media/HD753LJ/Import/Filme/Agitation Free - Shibuya Nights DVD 2014/VIDEO_TS/VTS_05_0.BUP: Invalid data found when processing input
  457.  
  458.  
  459. /usr/bin/ffmpeg -y -i "/media/HD753LJ/Import/Filme/Agitation Free - Shibuya Nights DVD 2014/VIDEO_TS/VTS_05_0.IFO" -vn -acodec aac -b:a 32k "/home/willy/~VTS_05_0.aac"
  460. ffmpeg version 4.1.3 Copyright (c) 2000-2019 the FFmpeg developers
  461.   built with gcc 8 (Debian 8.3.0-4)
  462.   configuration: --disable-decoder=amrnb --disable-decoder=libopenjpeg --disable-libopencv --disable-outdev=sdl2 --disable-podpages --disable-sndio --disable-stripping --enable-libaom --enable-avfilter --enable-avresample --enable-gcrypt --enable-gnutls --enable-gpl --enable-libass --enable-libbluray --enable-libbs2b --enable-libcaca --enable-libcdio --enable-libcodec2 --enable-libfdk-aac --enable-libfontconfig --enable-libfreetype --enable-libfribidi --enable-libgme --enable-libgsm --enable-libilbc --enable-libkvazaar --enable-libmp3lame --enable-libopencore-amrnb --enable-libopencore-amrwb --enable-libopenh264 --enable-libopenjpeg --enable-libopenmpt --enable-libopus --enable-libpulse --enable-librubberband --enable-libshine --enable-libsnappy --enable-libsoxr --enable-libspeex --enable-libtesseract --enable-libtheora --enable-libvidstab --enable-libvo-amrwbenc --enable-libvorbis --enable-libvpx --enable-libx265 --enable-libxvid --enable-libzvbi --enable-nonfree --enable-opencl --enable-opengl --enable-postproc --enable-pthreads --enable-shared --enable-version3 --enable-libwebp --incdir=/usr/include/x86_64-linux-gnu --libdir=/usr/lib/x86_64-linux-gnu --prefix=/usr --toolchain=hardened --enable-frei0r --enable-chromaprint --enable-libx264 --enable-libiec61883 --enable-libdc1394 --enable-vaapi --enable-libmfx --disable-altivec --shlibdir=/usr/lib/x86_64-linux-gnu
  463.   libavutil      56. 22.100 / 56. 22.100
  464.   libavcodec     58. 35.100 / 58. 35.100
  465.   libavformat    58. 20.100 / 58. 20.100
  466.   libavdevice    58.  5.100 / 58.  5.100
  467.   libavfilter     7. 40.101 /  7. 40.101
  468.   libavresample   4.  0.  0 /  4.  0.  0
  469.   libswscale      5.  3.100 /  5.  3.100
  470.   libswresample   3.  3.100 /  3.  3.100
  471.   libpostproc    55.  3.100 / 55.  3.100
  472. /media/HD753LJ/Import/Filme/Agitation Free - Shibuya Nights DVD 2014/VIDEO_TS/VTS_05_0.IFO: Invalid data found when processing input
  473.  
  474.  
  475. /usr/bin/ffmpeg -y -i "/media/HD753LJ/Import/Filme/Agitation Free - Shibuya Nights DVD 2014/VIDEO_TS/VTS_05_0.VOB" -vn -acodec aac -b:a 32k "/home/willy/~~VTS_05_0.aac"
  476. ffmpeg version 4.1.3 Copyright (c) 2000-2019 the FFmpeg developers
  477.   built with gcc 8 (Debian 8.3.0-4)
  478.   configuration: --disable-decoder=amrnb --disable-decoder=libopenjpeg --disable-libopencv --disable-outdev=sdl2 --disable-podpages --disable-sndio --disable-stripping --enable-libaom --enable-avfilter --enable-avresample --enable-gcrypt --enable-gnutls --enable-gpl --enable-libass --enable-libbluray --enable-libbs2b --enable-libcaca --enable-libcdio --enable-libcodec2 --enable-libfdk-aac --enable-libfontconfig --enable-libfreetype --enable-libfribidi --enable-libgme --enable-libgsm --enable-libilbc --enable-libkvazaar --enable-libmp3lame --enable-libopencore-amrnb --enable-libopencore-amrwb --enable-libopenh264 --enable-libopenjpeg --enable-libopenmpt --enable-libopus --enable-libpulse --enable-librubberband --enable-libshine --enable-libsnappy --enable-libsoxr --enable-libspeex --enable-libtesseract --enable-libtheora --enable-libvidstab --enable-libvo-amrwbenc --enable-libvorbis --enable-libvpx --enable-libx265 --enable-libxvid --enable-libzvbi --enable-nonfree --enable-opencl --enable-opengl --enable-postproc --enable-pthreads --enable-shared --enable-version3 --enable-libwebp --incdir=/usr/include/x86_64-linux-gnu --libdir=/usr/lib/x86_64-linux-gnu --prefix=/usr --toolchain=hardened --enable-frei0r --enable-chromaprint --enable-libx264 --enable-libiec61883 --enable-libdc1394 --enable-vaapi --enable-libmfx --disable-altivec --shlibdir=/usr/lib/x86_64-linux-gnu
  479.   libavutil      56. 22.100 / 56. 22.100
  480.   libavcodec     58. 35.100 / 58. 35.100
  481.   libavformat    58. 20.100 / 58. 20.100
  482.   libavdevice    58.  5.100 / 58.  5.100
  483.   libavfilter     7. 40.101 /  7. 40.101
  484.   libavresample   4.  0.  0 /  4.  0.  0
  485.   libswscale      5.  3.100 /  5.  3.100
  486.   libswresample   3.  3.100 /  3.  3.100
  487.   libpostproc    55.  3.100 / 55.  3.100
  488. Input #0, mpeg, from '/media/HD753LJ/Import/Filme/Agitation Free - Shibuya Nights DVD 2014/VIDEO_TS/VTS_05_0.VOB':
  489.  Duration: 00:00:00.10, start: 0.233567, bitrate: 9329 kb/s
  490.     Stream #0:0[0x1bf]: Data: dvd_nav_packet
  491.    Stream #0:1[0x1e0]: Video: mpeg2video (Main), yuv420p(tv, top first), 720x480 [SAR 8:9 DAR 4:3], 2000 kb/s, 29.97 fps, 29.97 tbr, 90k tbn, 59.94 tbc
  492.    Stream #0:2[0x20]: Subtitle: dvd_subtitle
  493. Output #0, adts, to '/home/willy/~~VTS_05_0.aac':
  494. Output file #0 does not contain any stream
  495.  
  496.  
  497. /usr/bin/ffmpeg -y -i "/media/HD753LJ/Import/Filme/Agitation Free - Shibuya Nights DVD 2014/VIDEO_TS/VTS_05_1.VOB" -vn -acodec aac -b:a 32k "/home/willy/VTS_05_1.aac"
  498. ffmpeg version 4.1.3 Copyright (c) 2000-2019 the FFmpeg developers
  499.   built with gcc 8 (Debian 8.3.0-4)
  500.   configuration: --disable-decoder=amrnb --disable-decoder=libopenjpeg --disable-libopencv --disable-outdev=sdl2 --disable-podpages --disable-sndio --disable-stripping --enable-libaom --enable-avfilter --enable-avresample --enable-gcrypt --enable-gnutls --enable-gpl --enable-libass --enable-libbluray --enable-libbs2b --enable-libcaca --enable-libcdio --enable-libcodec2 --enable-libfdk-aac --enable-libfontconfig --enable-libfreetype --enable-libfribidi --enable-libgme --enable-libgsm --enable-libilbc --enable-libkvazaar --enable-libmp3lame --enable-libopencore-amrnb --enable-libopencore-amrwb --enable-libopenh264 --enable-libopenjpeg --enable-libopenmpt --enable-libopus --enable-libpulse --enable-librubberband --enable-libshine --enable-libsnappy --enable-libsoxr --enable-libspeex --enable-libtesseract --enable-libtheora --enable-libvidstab --enable-libvo-amrwbenc --enable-libvorbis --enable-libvpx --enable-libx265 --enable-libxvid --enable-libzvbi --enable-nonfree --enable-opencl --enable-opengl --enable-postproc --enable-pthreads --enable-shared --enable-version3 --enable-libwebp --incdir=/usr/include/x86_64-linux-gnu --libdir=/usr/lib/x86_64-linux-gnu --prefix=/usr --toolchain=hardened --enable-frei0r --enable-chromaprint --enable-libx264 --enable-libiec61883 --enable-libdc1394 --enable-vaapi --enable-libmfx --disable-altivec --shlibdir=/usr/lib/x86_64-linux-gnu
  501.   libavutil      56. 22.100 / 56. 22.100
  502.   libavcodec     58. 35.100 / 58. 35.100
  503.   libavformat    58. 20.100 / 58. 20.100
  504.   libavdevice    58.  5.100 / 58.  5.100
  505.   libavfilter     7. 40.101 /  7. 40.101
  506.   libavresample   4.  0.  0 /  4.  0.  0
  507.   libswscale      5.  3.100 /  5.  3.100
  508.   libswresample   3.  3.100 /  3.  3.100
  509.   libpostproc    55.  3.100 / 55.  3.100
  510. Guessed Channel Layout for Input Stream #0.2 : stereo
  511. Input #0, mpeg, from '/media/HD753LJ/Import/Filme/Agitation Free - Shibuya Nights DVD 2014/VIDEO_TS/VTS_05_1.VOB':
  512.  Duration: 00:07:57.34, start: 0.300300, bitrate: 8727 kb/s
  513.     Stream #0:0[0x1bf]: Data: dvd_nav_packet
  514.    Stream #0:1[0x1e0]: Video: mpeg2video (Main), yuv420p(tv, smpte170m, top first), 720x480 [SAR 32:27 DAR 16:9], 7044 kb/s, 29.97 fps, 29.97 tbr, 90k tbn, 59.94 tbc
  515.    Stream #0:2[0xa0]: Audio: pcm_dvd, 48000 Hz, stereo, s16, 1536 kb/s
  516. Stream mapping:
  517.   Stream #0:2 -> #0:0 (pcm_dvd (native) -> aac (native))
  518. Press [q] to stop, [?] for help
  519. Output #0, adts, to '/home/willy/VTS_05_1.aac':
  520.  Metadata:
  521.     encoder         : Lavf58.20.100
  522.     Stream #0:0: Audio: aac (LC), 48000 Hz, stereo, fltp (16 bit), 32 kb/s
  523.    Metadata:
  524.       encoder         : Lavc58.35.100 aac
  525. size=     208kB time=00:00:48.64 bitrate=  35.0kbits/s speed=97.3x    
  526. size=     256kB time=00:01:36.96 bitrate=  21.6kbits/s speed=96.9x    
  527. size=     512kB time=00:02:22.52 bitrate=  29.4kbits/s speed=  95x    
  528. size=     768kB time=00:03:11.50 bitrate=  32.9kbits/s speed=95.7x    
  529. size=    1024kB time=00:03:59.70 bitrate=  35.0kbits/s speed=95.9x    
  530. size=    1024kB time=00:04:48.19 bitrate=  29.1kbits/s speed=96.1x    
  531. size=    1280kB time=00:05:34.48 bitrate=  31.3kbits/s speed=95.6x    
  532. size=    1536kB time=00:06:23.36 bitrate=  32.8kbits/s speed=95.8x    
  533. size=    1792kB time=00:07:12.42 bitrate=  33.9kbits/s speed=96.1x    
  534. size=    2035kB time=00:07:56.26 bitrate=  35.0kbits/s speed=96.4x    
  535. video:0kB audio:1883kB subtitle:0kB other streams:0kB global headers:0kB muxing overhead: 8.107018%
  536. [aac @ 0x55bfa54bc380] Qavg: 108.315
  537.  
  538.  
  539. /usr/bin/ffmpeg -y -i "/media/HD753LJ/Import/Filme/Agitation Free - Shibuya Nights DVD 2014/VIDEO_TS/VTS_06_0.BUP" -vn -acodec aac -b:a 32k "/home/willy/VTS_06_0.aac"
  540. ffmpeg version 4.1.3 Copyright (c) 2000-2019 the FFmpeg developers
  541.   built with gcc 8 (Debian 8.3.0-4)
  542.   configuration: --disable-decoder=amrnb --disable-decoder=libopenjpeg --disable-libopencv --disable-outdev=sdl2 --disable-podpages --disable-sndio --disable-stripping --enable-libaom --enable-avfilter --enable-avresample --enable-gcrypt --enable-gnutls --enable-gpl --enable-libass --enable-libbluray --enable-libbs2b --enable-libcaca --enable-libcdio --enable-libcodec2 --enable-libfdk-aac --enable-libfontconfig --enable-libfreetype --enable-libfribidi --enable-libgme --enable-libgsm --enable-libilbc --enable-libkvazaar --enable-libmp3lame --enable-libopencore-amrnb --enable-libopencore-amrwb --enable-libopenh264 --enable-libopenjpeg --enable-libopenmpt --enable-libopus --enable-libpulse --enable-librubberband --enable-libshine --enable-libsnappy --enable-libsoxr --enable-libspeex --enable-libtesseract --enable-libtheora --enable-libvidstab --enable-libvo-amrwbenc --enable-libvorbis --enable-libvpx --enable-libx265 --enable-libxvid --enable-libzvbi --enable-nonfree --enable-opencl --enable-opengl --enable-postproc --enable-pthreads --enable-shared --enable-version3 --enable-libwebp --incdir=/usr/include/x86_64-linux-gnu --libdir=/usr/lib/x86_64-linux-gnu --prefix=/usr --toolchain=hardened --enable-frei0r --enable-chromaprint --enable-libx264 --enable-libiec61883 --enable-libdc1394 --enable-vaapi --enable-libmfx --disable-altivec --shlibdir=/usr/lib/x86_64-linux-gnu
  543.   libavutil      56. 22.100 / 56. 22.100
  544.   libavcodec     58. 35.100 / 58. 35.100
  545.   libavformat    58. 20.100 / 58. 20.100
  546.   libavdevice    58.  5.100 / 58.  5.100
  547.   libavfilter     7. 40.101 /  7. 40.101
  548.   libavresample   4.  0.  0 /  4.  0.  0
  549.   libswscale      5.  3.100 /  5.  3.100
  550.   libswresample   3.  3.100 /  3.  3.100
  551.   libpostproc    55.  3.100 / 55.  3.100
  552. /media/HD753LJ/Import/Filme/Agitation Free - Shibuya Nights DVD 2014/VIDEO_TS/VTS_06_0.BUP: Invalid data found when processing input
  553.  
  554.  
  555. /usr/bin/ffmpeg -y -i "/media/HD753LJ/Import/Filme/Agitation Free - Shibuya Nights DVD 2014/VIDEO_TS/VTS_06_0.IFO" -vn -acodec aac -b:a 32k "/home/willy/~VTS_06_0.aac"
  556. ffmpeg version 4.1.3 Copyright (c) 2000-2019 the FFmpeg developers
  557.   built with gcc 8 (Debian 8.3.0-4)
  558.   configuration: --disable-decoder=amrnb --disable-decoder=libopenjpeg --disable-libopencv --disable-outdev=sdl2 --disable-podpages --disable-sndio --disable-stripping --enable-libaom --enable-avfilter --enable-avresample --enable-gcrypt --enable-gnutls --enable-gpl --enable-libass --enable-libbluray --enable-libbs2b --enable-libcaca --enable-libcdio --enable-libcodec2 --enable-libfdk-aac --enable-libfontconfig --enable-libfreetype --enable-libfribidi --enable-libgme --enable-libgsm --enable-libilbc --enable-libkvazaar --enable-libmp3lame --enable-libopencore-amrnb --enable-libopencore-amrwb --enable-libopenh264 --enable-libopenjpeg --enable-libopenmpt --enable-libopus --enable-libpulse --enable-librubberband --enable-libshine --enable-libsnappy --enable-libsoxr --enable-libspeex --enable-libtesseract --enable-libtheora --enable-libvidstab --enable-libvo-amrwbenc --enable-libvorbis --enable-libvpx --enable-libx265 --enable-libxvid --enable-libzvbi --enable-nonfree --enable-opencl --enable-opengl --enable-postproc --enable-pthreads --enable-shared --enable-version3 --enable-libwebp --incdir=/usr/include/x86_64-linux-gnu --libdir=/usr/lib/x86_64-linux-gnu --prefix=/usr --toolchain=hardened --enable-frei0r --enable-chromaprint --enable-libx264 --enable-libiec61883 --enable-libdc1394 --enable-vaapi --enable-libmfx --disable-altivec --shlibdir=/usr/lib/x86_64-linux-gnu
  559.   libavutil      56. 22.100 / 56. 22.100
  560.   libavcodec     58. 35.100 / 58. 35.100
  561.   libavformat    58. 20.100 / 58. 20.100
  562.   libavdevice    58.  5.100 / 58.  5.100
  563.   libavfilter     7. 40.101 /  7. 40.101
  564.   libavresample   4.  0.  0 /  4.  0.  0
  565.   libswscale      5.  3.100 /  5.  3.100
  566.   libswresample   3.  3.100 /  3.  3.100
  567.   libpostproc    55.  3.100 / 55.  3.100
  568. /media/HD753LJ/Import/Filme/Agitation Free - Shibuya Nights DVD 2014/VIDEO_TS/VTS_06_0.IFO: Invalid data found when processing input
  569.  
  570.  
  571. /usr/bin/ffmpeg -y -i "/media/HD753LJ/Import/Filme/Agitation Free - Shibuya Nights DVD 2014/VIDEO_TS/VTS_06_0.VOB" -vn -acodec aac -b:a 32k "/home/willy/~~VTS_06_0.aac"
  572. ffmpeg version 4.1.3 Copyright (c) 2000-2019 the FFmpeg developers
  573.   built with gcc 8 (Debian 8.3.0-4)
  574.   configuration: --disable-decoder=amrnb --disable-decoder=libopenjpeg --disable-libopencv --disable-outdev=sdl2 --disable-podpages --disable-sndio --disable-stripping --enable-libaom --enable-avfilter --enable-avresample --enable-gcrypt --enable-gnutls --enable-gpl --enable-libass --enable-libbluray --enable-libbs2b --enable-libcaca --enable-libcdio --enable-libcodec2 --enable-libfdk-aac --enable-libfontconfig --enable-libfreetype --enable-libfribidi --enable-libgme --enable-libgsm --enable-libilbc --enable-libkvazaar --enable-libmp3lame --enable-libopencore-amrnb --enable-libopencore-amrwb --enable-libopenh264 --enable-libopenjpeg --enable-libopenmpt --enable-libopus --enable-libpulse --enable-librubberband --enable-libshine --enable-libsnappy --enable-libsoxr --enable-libspeex --enable-libtesseract --enable-libtheora --enable-libvidstab --enable-libvo-amrwbenc --enable-libvorbis --enable-libvpx --enable-libx265 --enable-libxvid --enable-libzvbi --enable-nonfree --enable-opencl --enable-opengl --enable-postproc --enable-pthreads --enable-shared --enable-version3 --enable-libwebp --incdir=/usr/include/x86_64-linux-gnu --libdir=/usr/lib/x86_64-linux-gnu --prefix=/usr --toolchain=hardened --enable-frei0r --enable-chromaprint --enable-libx264 --enable-libiec61883 --enable-libdc1394 --enable-vaapi --enable-libmfx --disable-altivec --shlibdir=/usr/lib/x86_64-linux-gnu
  575.   libavutil      56. 22.100 / 56. 22.100
  576.   libavcodec     58. 35.100 / 58. 35.100
  577.   libavformat    58. 20.100 / 58. 20.100
  578.   libavdevice    58.  5.100 / 58.  5.100
  579.   libavfilter     7. 40.101 /  7. 40.101
  580.   libavresample   4.  0.  0 /  4.  0.  0
  581.   libswscale      5.  3.100 /  5.  3.100
  582.   libswresample   3.  3.100 /  3.  3.100
  583.   libpostproc    55.  3.100 / 55.  3.100
  584. Input #0, mpeg, from '/media/HD753LJ/Import/Filme/Agitation Free - Shibuya Nights DVD 2014/VIDEO_TS/VTS_06_0.VOB':
  585.  Duration: 00:00:00.10, start: 0.233567, bitrate: 9329 kb/s
  586.     Stream #0:0[0x1bf]: Data: dvd_nav_packet
  587.    Stream #0:1[0x1e0]: Video: mpeg2video (Main), yuv420p(tv, top first), 720x480 [SAR 8:9 DAR 4:3], 2000 kb/s, 29.97 fps, 29.97 tbr, 90k tbn, 59.94 tbc
  588.    Stream #0:2[0x20]: Subtitle: dvd_subtitle
  589. Output #0, adts, to '/home/willy/~~VTS_06_0.aac':
  590. Output file #0 does not contain any stream
  591.  
  592.  
  593. /usr/bin/ffmpeg -y -i "/media/HD753LJ/Import/Filme/Agitation Free - Shibuya Nights DVD 2014/VIDEO_TS/VTS_06_1.VOB" -vn -acodec aac -b:a 32k "/home/willy/VTS_06_1.aac"
  594. ffmpeg version 4.1.3 Copyright (c) 2000-2019 the FFmpeg developers
  595.   built with gcc 8 (Debian 8.3.0-4)
  596.   configuration: --disable-decoder=amrnb --disable-decoder=libopenjpeg --disable-libopencv --disable-outdev=sdl2 --disable-podpages --disable-sndio --disable-stripping --enable-libaom --enable-avfilter --enable-avresample --enable-gcrypt --enable-gnutls --enable-gpl --enable-libass --enable-libbluray --enable-libbs2b --enable-libcaca --enable-libcdio --enable-libcodec2 --enable-libfdk-aac --enable-libfontconfig --enable-libfreetype --enable-libfribidi --enable-libgme --enable-libgsm --enable-libilbc --enable-libkvazaar --enable-libmp3lame --enable-libopencore-amrnb --enable-libopencore-amrwb --enable-libopenh264 --enable-libopenjpeg --enable-libopenmpt --enable-libopus --enable-libpulse --enable-librubberband --enable-libshine --enable-libsnappy --enable-libsoxr --enable-libspeex --enable-libtesseract --enable-libtheora --enable-libvidstab --enable-libvo-amrwbenc --enable-libvorbis --enable-libvpx --enable-libx265 --enable-libxvid --enable-libzvbi --enable-nonfree --enable-opencl --enable-opengl --enable-postproc --enable-pthreads --enable-shared --enable-version3 --enable-libwebp --incdir=/usr/include/x86_64-linux-gnu --libdir=/usr/lib/x86_64-linux-gnu --prefix=/usr --toolchain=hardened --enable-frei0r --enable-chromaprint --enable-libx264 --enable-libiec61883 --enable-libdc1394 --enable-vaapi --enable-libmfx --disable-altivec --shlibdir=/usr/lib/x86_64-linux-gnu
  597.   libavutil      56. 22.100 / 56. 22.100
  598.   libavcodec     58. 35.100 / 58. 35.100
  599.   libavformat    58. 20.100 / 58. 20.100
  600.   libavdevice    58.  5.100 / 58.  5.100
  601.   libavfilter     7. 40.101 /  7. 40.101
  602.   libavresample   4.  0.  0 /  4.  0.  0
  603.   libswscale      5.  3.100 /  5.  3.100
  604.   libswresample   3.  3.100 /  3.  3.100
  605.   libpostproc    55.  3.100 / 55.  3.100
  606. Guessed Channel Layout for Input Stream #0.2 : stereo
  607. Input #0, mpeg, from '/media/HD753LJ/Import/Filme/Agitation Free - Shibuya Nights DVD 2014/VIDEO_TS/VTS_06_1.VOB':
  608.  Duration: 00:06:54.15, start: 0.300300, bitrate: 8719 kb/s
  609.     Stream #0:0[0x1bf]: Data: dvd_nav_packet
  610.    Stream #0:1[0x1e0]: Video: mpeg2video (Main), yuv420p(tv, smpte170m, top first), 720x480 [SAR 32:27 DAR 16:9], 7044 kb/s, 29.97 fps, 29.97 tbr, 90k tbn, 59.94 tbc
  611.    Stream #0:2[0xa0]: Audio: pcm_dvd, 48000 Hz, stereo, s16, 1536 kb/s
  612. Stream mapping:
  613.   Stream #0:2 -> #0:0 (pcm_dvd (native) -> aac (native))
  614. Press [q] to stop, [?] for help
  615. Output #0, adts, to '/home/willy/VTS_06_1.aac':
  616.  Metadata:
  617.     encoder         : Lavf58.20.100
  618.     Stream #0:0: Audio: aac (LC), 48000 Hz, stereo, fltp (16 bit), 32 kb/s
  619.    Metadata:
  620.       encoder         : Lavc58.35.100 aac
  621. size=     208kB time=00:00:48.42 bitrate=  35.1kbits/s speed=96.8x    
  622. size=     256kB time=00:01:36.08 bitrate=  21.8kbits/s speed=96.1x    
  623. size=     512kB time=00:02:25.02 bitrate=  28.9kbits/s speed=96.7x    
  624. size=     768kB time=00:03:12.38 bitrate=  32.7kbits/s speed=96.2x    
  625. size=    1024kB time=00:04:01.94 bitrate=  34.7kbits/s speed=96.8x    
  626. size=    1024kB time=00:04:51.22 bitrate=  28.8kbits/s speed=97.1x    
  627. size=    1280kB time=00:05:39.96 bitrate=  30.8kbits/s speed=97.1x    
  628. size=    1536kB time=00:06:25.70 bitrate=  32.6kbits/s speed=96.4x    
  629. size=    1764kB time=00:06:52.56 bitrate=  35.0kbits/s speed=96.4x    
  630. video:0kB audio:1631kB subtitle:0kB other streams:0kB global headers:0kB muxing overhead: 8.104179%
  631. [aac @ 0x55d732395340] Qavg: 105.773
  632.  
  633.  
  634. /usr/bin/ffmpeg -y -i "/media/HD753LJ/Import/Filme/Agitation Free - Shibuya Nights DVD 2014/VIDEO_TS/VTS_07_0.BUP" -vn -acodec aac -b:a 32k "/home/willy/VTS_07_0.aac"
  635. ffmpeg version 4.1.3 Copyright (c) 2000-2019 the FFmpeg developers
  636.   built with gcc 8 (Debian 8.3.0-4)
  637.   configuration: --disable-decoder=amrnb --disable-decoder=libopenjpeg --disable-libopencv --disable-outdev=sdl2 --disable-podpages --disable-sndio --disable-stripping --enable-libaom --enable-avfilter --enable-avresample --enable-gcrypt --enable-gnutls --enable-gpl --enable-libass --enable-libbluray --enable-libbs2b --enable-libcaca --enable-libcdio --enable-libcodec2 --enable-libfdk-aac --enable-libfontconfig --enable-libfreetype --enable-libfribidi --enable-libgme --enable-libgsm --enable-libilbc --enable-libkvazaar --enable-libmp3lame --enable-libopencore-amrnb --enable-libopencore-amrwb --enable-libopenh264 --enable-libopenjpeg --enable-libopenmpt --enable-libopus --enable-libpulse --enable-librubberband --enable-libshine --enable-libsnappy --enable-libsoxr --enable-libspeex --enable-libtesseract --enable-libtheora --enable-libvidstab --enable-libvo-amrwbenc --enable-libvorbis --enable-libvpx --enable-libx265 --enable-libxvid --enable-libzvbi --enable-nonfree --enable-opencl --enable-opengl --enable-postproc --enable-pthreads --enable-shared --enable-version3 --enable-libwebp --incdir=/usr/include/x86_64-linux-gnu --libdir=/usr/lib/x86_64-linux-gnu --prefix=/usr --toolchain=hardened --enable-frei0r --enable-chromaprint --enable-libx264 --enable-libiec61883 --enable-libdc1394 --enable-vaapi --enable-libmfx --disable-altivec --shlibdir=/usr/lib/x86_64-linux-gnu
  638.   libavutil      56. 22.100 / 56. 22.100
  639.   libavcodec     58. 35.100 / 58. 35.100
  640.   libavformat    58. 20.100 / 58. 20.100
  641.   libavdevice    58.  5.100 / 58.  5.100
  642.   libavfilter     7. 40.101 /  7. 40.101
  643.   libavresample   4.  0.  0 /  4.  0.  0
  644.   libswscale      5.  3.100 /  5.  3.100
  645.   libswresample   3.  3.100 /  3.  3.100
  646.   libpostproc    55.  3.100 / 55.  3.100
  647. /media/HD753LJ/Import/Filme/Agitation Free - Shibuya Nights DVD 2014/VIDEO_TS/VTS_07_0.BUP: Invalid data found when processing input
  648.  
  649.  
  650. /usr/bin/ffmpeg -y -i "/media/HD753LJ/Import/Filme/Agitation Free - Shibuya Nights DVD 2014/VIDEO_TS/VTS_07_0.IFO" -vn -acodec aac -b:a 32k "/home/willy/~VTS_07_0.aac"
  651. ffmpeg version 4.1.3 Copyright (c) 2000-2019 the FFmpeg developers
  652.   built with gcc 8 (Debian 8.3.0-4)
  653.   configuration: --disable-decoder=amrnb --disable-decoder=libopenjpeg --disable-libopencv --disable-outdev=sdl2 --disable-podpages --disable-sndio --disable-stripping --enable-libaom --enable-avfilter --enable-avresample --enable-gcrypt --enable-gnutls --enable-gpl --enable-libass --enable-libbluray --enable-libbs2b --enable-libcaca --enable-libcdio --enable-libcodec2 --enable-libfdk-aac --enable-libfontconfig --enable-libfreetype --enable-libfribidi --enable-libgme --enable-libgsm --enable-libilbc --enable-libkvazaar --enable-libmp3lame --enable-libopencore-amrnb --enable-libopencore-amrwb --enable-libopenh264 --enable-libopenjpeg --enable-libopenmpt --enable-libopus --enable-libpulse --enable-librubberband --enable-libshine --enable-libsnappy --enable-libsoxr --enable-libspeex --enable-libtesseract --enable-libtheora --enable-libvidstab --enable-libvo-amrwbenc --enable-libvorbis --enable-libvpx --enable-libx265 --enable-libxvid --enable-libzvbi --enable-nonfree --enable-opencl --enable-opengl --enable-postproc --enable-pthreads --enable-shared --enable-version3 --enable-libwebp --incdir=/usr/include/x86_64-linux-gnu --libdir=/usr/lib/x86_64-linux-gnu --prefix=/usr --toolchain=hardened --enable-frei0r --enable-chromaprint --enable-libx264 --enable-libiec61883 --enable-libdc1394 --enable-vaapi --enable-libmfx --disable-altivec --shlibdir=/usr/lib/x86_64-linux-gnu
  654.   libavutil      56. 22.100 / 56. 22.100
  655.   libavcodec     58. 35.100 / 58. 35.100
  656.   libavformat    58. 20.100 / 58. 20.100
  657.   libavdevice    58.  5.100 / 58.  5.100
  658.   libavfilter     7. 40.101 /  7. 40.101
  659.   libavresample   4.  0.  0 /  4.  0.  0
  660.   libswscale      5.  3.100 /  5.  3.100
  661.   libswresample   3.  3.100 /  3.  3.100
  662.   libpostproc    55.  3.100 / 55.  3.100
  663. /media/HD753LJ/Import/Filme/Agitation Free - Shibuya Nights DVD 2014/VIDEO_TS/VTS_07_0.IFO: Invalid data found when processing input
  664.  
  665.  
  666. /usr/bin/ffmpeg -y -i "/media/HD753LJ/Import/Filme/Agitation Free - Shibuya Nights DVD 2014/VIDEO_TS/VTS_07_0.VOB" -vn -acodec aac -b:a 32k "/home/willy/~~VTS_07_0.aac"
  667. ffmpeg version 4.1.3 Copyright (c) 2000-2019 the FFmpeg developers
  668.   built with gcc 8 (Debian 8.3.0-4)
  669.   configuration: --disable-decoder=amrnb --disable-decoder=libopenjpeg --disable-libopencv --disable-outdev=sdl2 --disable-podpages --disable-sndio --disable-stripping --enable-libaom --enable-avfilter --enable-avresample --enable-gcrypt --enable-gnutls --enable-gpl --enable-libass --enable-libbluray --enable-libbs2b --enable-libcaca --enable-libcdio --enable-libcodec2 --enable-libfdk-aac --enable-libfontconfig --enable-libfreetype --enable-libfribidi --enable-libgme --enable-libgsm --enable-libilbc --enable-libkvazaar --enable-libmp3lame --enable-libopencore-amrnb --enable-libopencore-amrwb --enable-libopenh264 --enable-libopenjpeg --enable-libopenmpt --enable-libopus --enable-libpulse --enable-librubberband --enable-libshine --enable-libsnappy --enable-libsoxr --enable-libspeex --enable-libtesseract --enable-libtheora --enable-libvidstab --enable-libvo-amrwbenc --enable-libvorbis --enable-libvpx --enable-libx265 --enable-libxvid --enable-libzvbi --enable-nonfree --enable-opencl --enable-opengl --enable-postproc --enable-pthreads --enable-shared --enable-version3 --enable-libwebp --incdir=/usr/include/x86_64-linux-gnu --libdir=/usr/lib/x86_64-linux-gnu --prefix=/usr --toolchain=hardened --enable-frei0r --enable-chromaprint --enable-libx264 --enable-libiec61883 --enable-libdc1394 --enable-vaapi --enable-libmfx --disable-altivec --shlibdir=/usr/lib/x86_64-linux-gnu
  670.   libavutil      56. 22.100 / 56. 22.100
  671.   libavcodec     58. 35.100 / 58. 35.100
  672.   libavformat    58. 20.100 / 58. 20.100
  673.   libavdevice    58.  5.100 / 58.  5.100
  674.   libavfilter     7. 40.101 /  7. 40.101
  675.   libavresample   4.  0.  0 /  4.  0.  0
  676.   libswscale      5.  3.100 /  5.  3.100
  677.   libswresample   3.  3.100 /  3.  3.100
  678.   libpostproc    55.  3.100 / 55.  3.100
  679. Input #0, mpeg, from '/media/HD753LJ/Import/Filme/Agitation Free - Shibuya Nights DVD 2014/VIDEO_TS/VTS_07_0.VOB':
  680.  Duration: 00:00:00.10, start: 0.233567, bitrate: 9329 kb/s
  681.     Stream #0:0[0x1bf]: Data: dvd_nav_packet
  682.    Stream #0:1[0x1e0]: Video: mpeg2video (Main), yuv420p(tv, top first), 720x480 [SAR 8:9 DAR 4:3], 2000 kb/s, 29.97 fps, 29.97 tbr, 90k tbn, 59.94 tbc
  683.    Stream #0:2[0x20]: Subtitle: dvd_subtitle
  684. Output #0, adts, to '/home/willy/~~VTS_07_0.aac':
  685. Output file #0 does not contain any stream
  686.  
  687.  
  688. /usr/bin/ffmpeg -y -i "/media/HD753LJ/Import/Filme/Agitation Free - Shibuya Nights DVD 2014/VIDEO_TS/VTS_07_1.VOB" -vn -acodec aac -b:a 32k "/home/willy/VTS_07_1.aac"
  689. ffmpeg version 4.1.3 Copyright (c) 2000-2019 the FFmpeg developers
  690.   built with gcc 8 (Debian 8.3.0-4)
  691.   configuration: --disable-decoder=amrnb --disable-decoder=libopenjpeg --disable-libopencv --disable-outdev=sdl2 --disable-podpages --disable-sndio --disable-stripping --enable-libaom --enable-avfilter --enable-avresample --enable-gcrypt --enable-gnutls --enable-gpl --enable-libass --enable-libbluray --enable-libbs2b --enable-libcaca --enable-libcdio --enable-libcodec2 --enable-libfdk-aac --enable-libfontconfig --enable-libfreetype --enable-libfribidi --enable-libgme --enable-libgsm --enable-libilbc --enable-libkvazaar --enable-libmp3lame --enable-libopencore-amrnb --enable-libopencore-amrwb --enable-libopenh264 --enable-libopenjpeg --enable-libopenmpt --enable-libopus --enable-libpulse --enable-librubberband --enable-libshine --enable-libsnappy --enable-libsoxr --enable-libspeex --enable-libtesseract --enable-libtheora --enable-libvidstab --enable-libvo-amrwbenc --enable-libvorbis --enable-libvpx --enable-libx265 --enable-libxvid --enable-libzvbi --enable-nonfree --enable-opencl --enable-opengl --enable-postproc --enable-pthreads --enable-shared --enable-version3 --enable-libwebp --incdir=/usr/include/x86_64-linux-gnu --libdir=/usr/lib/x86_64-linux-gnu --prefix=/usr --toolchain=hardened --enable-frei0r --enable-chromaprint --enable-libx264 --enable-libiec61883 --enable-libdc1394 --enable-vaapi --enable-libmfx --disable-altivec --shlibdir=/usr/lib/x86_64-linux-gnu
  692.   libavutil      56. 22.100 / 56. 22.100
  693.   libavcodec     58. 35.100 / 58. 35.100
  694.   libavformat    58. 20.100 / 58. 20.100
  695.   libavdevice    58.  5.100 / 58.  5.100
  696.   libavfilter     7. 40.101 /  7. 40.101
  697.   libavresample   4.  0.  0 /  4.  0.  0
  698.   libswscale      5.  3.100 /  5.  3.100
  699.   libswresample   3.  3.100 /  3.  3.100
  700.   libpostproc    55.  3.100 / 55.  3.100
  701. Guessed Channel Layout for Input Stream #0.2 : stereo
  702. Input #0, mpeg, from '/media/HD753LJ/Import/Filme/Agitation Free - Shibuya Nights DVD 2014/VIDEO_TS/VTS_07_1.VOB':
  703.  Duration: 00:04:31.87, start: 0.300300, bitrate: 8709 kb/s
  704.     Stream #0:0[0x1bf]: Data: dvd_nav_packet
  705.    Stream #0:1[0x1e0]: Video: mpeg2video (Main), yuv420p(tv, smpte170m, top first), 720x480 [SAR 32:27 DAR 16:9], 7044 kb/s, 29.97 fps, 29.97 tbr, 90k tbn, 59.94 tbc
  706.    Stream #0:2[0xa0]: Audio: pcm_dvd, 48000 Hz, stereo, s16, 1536 kb/s
  707. Stream mapping:
  708.   Stream #0:2 -> #0:0 (pcm_dvd (native) -> aac (native))
  709. Press [q] to stop, [?] for help
  710. Output #0, adts, to '/home/willy/VTS_07_1.aac':
  711.  Metadata:
  712.     encoder         : Lavf58.20.100
  713.     Stream #0:0: Audio: aac (LC), 48000 Hz, stereo, fltp (16 bit), 32 kb/s
  714.    Metadata:
  715.       encoder         : Lavc58.35.100 aac
  716. size=     215kB time=00:00:50.39 bitrate=  35.0kbits/s speed= 101x    
  717. size=     256kB time=00:01:37.58 bitrate=  21.5kbits/s speed=97.5x    
  718. size=     512kB time=00:02:27.03 bitrate=  28.5kbits/s speed=  98x    
  719. size=     768kB time=00:03:16.50 bitrate=  32.0kbits/s speed=98.2x    
  720. size=    1024kB time=00:04:06.10 bitrate=  34.1kbits/s speed=98.4x    
  721. size=    1114kB time=00:04:30.29 bitrate=  33.8kbits/s speed=99.9x    
  722. video:0kB audio:1027kB subtitle:0kB other streams:0kB global headers:0kB muxing overhead: 8.430449%
  723. [aac @ 0x5561649d5340] Qavg: 2834.288

Quellcode

Hier kannst du den Code kopieren und ihn in deinen bevorzugten Editor einfügen. Alternativ kannst du den gesamten Eintrag auch als Datei herunterladen.