NoPaste

ffmpeg

von willy4711

Dein Code:
  1. $ ffmpeg -hwaccel cuvid -c:v h264_cuvid -i /media/HD753LJ/Import/Filme/Sully/Sully.mkv -vcodec hevc_nvenc -preset slow -cq 10 -g 150 Sully.mp4
  2. ffmpeg version 4.1.4 Copyright (c) 2000-2019 the FFmpeg developers
  3.   built with gcc 8 (Debian 8.3.0-19)
  4.   configuration: --disable-decoder=amrnb --disable-decoder=libopenjpeg --disable-libopencv --disable-outdev=sdl2 --disable-podpages --disable-sndio --disable-stripping --enable-libaom --enable-avfilter --enable-avresample --enable-gcrypt --disable-gnutls --enable-openssl --enable-gpl --enable-libass --enable-libbluray --enable-libbs2b --enable-libcaca --enable-libcdio --enable-libcodec2 --enable-libfdk-aac --enable-libfontconfig --enable-libfreetype --enable-libfribidi --enable-libgme --enable-libgsm --enable-libilbc --enable-libkvazaar --enable-libmp3lame --enable-libmysofa --enable-libopencore-amrnb --enable-libopencore-amrwb --enable-libopenh264 --enable-libopenjpeg --enable-libopenmpt --enable-libopus --enable-libpulse --enable-librubberband --enable-libshine --enable-libsnappy --enable-libsoxr --enable-libspeex --enable-libtesseract --enable-libtheora --enable-libvidstab --enable-libvo-amrwbenc --enable-libvorbis --enable-libvpx --enable-libx265 --enable-libzimg --enable-libxvid --enable-libzvbi --enable-nonfree --enable-opencl --enable-opengl --enable-postproc --enable-pthreads --enable-shared --enable-version3 --enable-libwebp --incdir=/usr/include/x86_64-linux-gnu --libdir=/usr/lib/x86_64-linux-gnu --prefix=/usr --toolchain=hardened --enable-frei0r --enable-chromaprint --enable-libx264 --enable-libiec61883 --enable-libdc1394 --enable-vaapi --enable-libmfx --enable-libvmaf --disable-altivec --shlibdir=/usr/lib/x86_64-linux-gnu
  5.   libavutil      56. 22.100 / 56. 22.100
  6.   libavcodec     58. 35.100 / 58. 35.100
  7.   libavformat    58. 20.100 / 58. 20.100
  8.   libavdevice    58.  5.100 / 58.  5.100
  9.   libavfilter     7. 40.101 /  7. 40.101
  10.   libavresample   4.  0.  0 /  4.  0.  0
  11.   libswscale      5.  3.100 /  5.  3.100
  12.   libswresample   3.  3.100 /  3.  3.100
  13.   libpostproc    55.  3.100 / 55.  3.100
  14. Input #0, matroska,webm, from '/media/HD753LJ/Import/Filme/Sully/Sully.mkv':
  15.   Metadata:
  16.     encoder         : libebml v1.3.1 + libmatroska v1.4.2
  17.     creation_time   : 2017-02-27T19:16:12.000000Z
  18.   Duration: 01:35:50.69, start: 0.000000, bitrate: 11430 kb/s
  19.     Chapter #0:0: start 0.000000, end 672.505000
  20.     Metadata:
  21.       title           : 00:00:00.000
  22.     Chapter #0:1: start 672.505000, end 1086.168000
  23.     Metadata:
  24.       title           : 00:11:12.505
  25.     Chapter #0:2: start 1086.168000, end 1797.921000
  26.     Metadata:
  27.       title           : 00:18:06.168
  28.     Chapter #0:3: start 1797.921000, end 2335.416000
  29.     Metadata:
  30.       title           : 00:29:57.921
  31.     Chapter #0:4: start 2335.416000, end 2960.749000
  32.     Metadata:
  33.       title           : 00:38:55.416
  34.     Chapter #0:5: start 2960.749000, end 3650.856000
  35.     Metadata:
  36.       title           : 00:49:20.749
  37.     Chapter #0:6: start 3650.856000, end 4096.384000
  38.     Metadata:
  39.       title           : 01:00:50.856
  40.     Chapter #0:7: start 4096.384000, end 4689.810000
  41.     Metadata:
  42.       title           : 01:08:16.384
  43.     Chapter #0:8: start 4689.810000, end 5219.798000
  44.     Metadata:
  45.       title           : 01:18:09.810
  46.     Chapter #0:9: start 5219.798000, end 5750.688000
  47.     Metadata:
  48.       title           : 01:26:59.798
  49.     Stream #0:0(eng): Video: h264 (High), yuv420p(progressive), 1920x808, SAR 1:1 DAR 240:101, 23.98 fps, 23.98 tbr, 1k tbn, 47.95 tbc (default)
  50.     Metadata:
  51.       BPS             : 10148718
  52.       BPS-eng         : 10148718
  53.       DURATION        : 01:35:50.662000000
  54.       DURATION-eng    : 01:35:50.662000000
  55.       NUMBER_OF_FRAMES: 137878
  56.       NUMBER_OF_FRAMES-eng: 137878
  57.       NUMBER_OF_BYTES : 7295231176
  58.       NUMBER_OF_BYTES-eng: 7295231176
  59.       _STATISTICS_WRITING_APP: mkvmerge v8.3.0 ('Over the Horizon') 64bit
  60.       _STATISTICS_WRITING_APP-eng: mkvmerge v8.3.0 ('Over the Horizon') 64bit
  61.       _STATISTICS_WRITING_DATE_UTC: 2017-02-27 19:16:12
  62.       _STATISTICS_WRITING_DATE_UTC-eng: 2017-02-27 19:16:12
  63.       _STATISTICS_TAGS: BPS DURATION NUMBER_OF_FRAMES NUMBER_OF_BYTES
  64.       _STATISTICS_TAGS-eng: BPS DURATION NUMBER_OF_FRAMES NUMBER_OF_BYTES
  65.     Stream #0:1(ger): Audio: ac3, 48000 Hz, 5.1(side), fltp, 640 kb/s (default)
  66.     Metadata:
  67.       BPS             : 640000
  68.       BPS-eng         : 640000
  69.       DURATION        : 01:35:50.688000000
  70.       DURATION-eng    : 01:35:50.688000000
  71.       NUMBER_OF_FRAMES: 179709
  72.       NUMBER_OF_FRAMES-eng: 179709
  73.       NUMBER_OF_BYTES : 460055040
  74.       NUMBER_OF_BYTES-eng: 460055040
  75.       _STATISTICS_WRITING_APP: mkvmerge v8.3.0 ('Over the Horizon') 64bit
  76.       _STATISTICS_WRITING_APP-eng: mkvmerge v8.3.0 ('Over the Horizon') 64bit
  77.       _STATISTICS_WRITING_DATE_UTC: 2017-02-27 19:16:12
  78.       _STATISTICS_WRITING_DATE_UTC-eng: 2017-02-27 19:16:12
  79.       _STATISTICS_TAGS: BPS DURATION NUMBER_OF_FRAMES NUMBER_OF_BYTES
  80.       _STATISTICS_TAGS-eng: BPS DURATION NUMBER_OF_FRAMES NUMBER_OF_BYTES
  81.     Stream #0:2(eng): Audio: ac3, 48000 Hz, 5.1(side), fltp, 640 kb/s
  82.     Metadata:
  83.       BPS             : 640000
  84.       BPS-eng         : 640000
  85.       DURATION        : 01:35:50.688000000
  86.       DURATION-eng    : 01:35:50.688000000
  87.       NUMBER_OF_FRAMES: 179709
  88.       NUMBER_OF_FRAMES-eng: 179709
  89.       NUMBER_OF_BYTES : 460055040
  90.       NUMBER_OF_BYTES-eng: 460055040
  91.       _STATISTICS_WRITING_APP: mkvmerge v8.3.0 ('Over the Horizon') 64bit
  92.       _STATISTICS_WRITING_APP-eng: mkvmerge v8.3.0 ('Over the Horizon') 64bit
  93.       _STATISTICS_WRITING_DATE_UTC: 2017-02-27 19:16:12
  94.       _STATISTICS_WRITING_DATE_UTC-eng: 2017-02-27 19:16:12
  95.       _STATISTICS_TAGS: BPS DURATION NUMBER_OF_FRAMES NUMBER_OF_BYTES
  96.       _STATISTICS_TAGS-eng: BPS DURATION NUMBER_OF_FRAMES NUMBER_OF_BYTES
  97.     Stream #0:3(ger): Subtitle: subrip (default) (forced)
  98.     Metadata:
  99.       BPS             : 23
  100.       BPS-eng         : 23
  101.       DURATION        : 00:07:21.650000000
  102.       DURATION-eng    : 00:07:21.650000000
  103.       NUMBER_OF_FRAMES: 32
  104.       NUMBER_OF_FRAMES-eng: 32
  105.       NUMBER_OF_BYTES : 1295
  106.       NUMBER_OF_BYTES-eng: 1295
  107.       _STATISTICS_WRITING_APP: mkvmerge v8.3.0 ('Over the Horizon') 64bit
  108.       _STATISTICS_WRITING_APP-eng: mkvmerge v8.3.0 ('Over the Horizon') 64bit
  109.       _STATISTICS_WRITING_DATE_UTC: 2017-02-27 19:16:12
  110.       _STATISTICS_WRITING_DATE_UTC-eng: 2017-02-27 19:16:12
  111.       _STATISTICS_TAGS: BPS DURATION NUMBER_OF_FRAMES NUMBER_OF_BYTES
  112.       _STATISTICS_TAGS-eng: BPS DURATION NUMBER_OF_FRAMES NUMBER_OF_BYTES
  113. Stream mapping:
  114.   Stream #0:0 -> #0:0 (h264 (h264_cuvid) -> hevc (hevc_nvenc))
  115.   Stream #0:1 -> #0:1 (ac3 (native) -> aac (native))
  116. Press [q] to stop, [?] for help
  117. [aac @ 0x55d12c5965c0] Using a PCE to encode channel layout "5.1(side)"
  118. Output #0, mp4, to 'Sully.mp4':
  119.   Metadata:
  120.     encoder         : Lavf58.20.100
  121.     Chapter #0:0: start 0.000000, end 672.505000
  122.     Metadata:
  123.       title           : 00:00:00.000
  124.     Chapter #0:1: start 672.505000, end 1086.168000
  125.     Metadata:
  126.       title           : 00:11:12.505
  127.     Chapter #0:2: start 1086.168000, end 1797.921000
  128.     Metadata:
  129.       title           : 00:18:06.168
  130.     Chapter #0:3: start 1797.921000, end 2335.416000
  131.     Metadata:
  132.       title           : 00:29:57.921
  133.     Chapter #0:4: start 2335.416000, end 2960.749000
  134.     Metadata:
  135.       title           : 00:38:55.416
  136.     Chapter #0:5: start 2960.749000, end 3650.856000
  137.     Metadata:
  138.       title           : 00:49:20.749
  139.     Chapter #0:6: start 3650.856000, end 4096.384000
  140.     Metadata:
  141.       title           : 01:00:50.856
  142.     Chapter #0:7: start 4096.384000, end 4689.810000
  143.     Metadata:
  144.       title           : 01:08:16.384
  145.     Chapter #0:8: start 4689.810000, end 5219.798000
  146.     Metadata:
  147.       title           : 01:18:09.810
  148.     Chapter #0:9: start 5219.798000, end 5750.688000
  149.     Metadata:
  150.       title           : 01:26:59.798
  151.     Stream #0:0(eng): Video: hevc (hevc_nvenc) (Main) (hev1 / 0x31766568), cuda, 1920x808 [SAR 1:1 DAR 240:101], q=-1--1, 2000 kb/s, 23.98 fps, 24k tbn, 23.98 tbc (default)
  152.     Metadata:
  153.       BPS             : 10148718
  154.       BPS-eng         : 10148718
  155.       DURATION        : 01:35:50.662000000
  156.       DURATION-eng    : 01:35:50.662000000
  157.       NUMBER_OF_FRAMES: 137878
  158.       NUMBER_OF_FRAMES-eng: 137878
  159.       NUMBER_OF_BYTES : 7295231176
  160.       NUMBER_OF_BYTES-eng: 7295231176
  161.       _STATISTICS_WRITING_APP: mkvmerge v8.3.0 ('Over the Horizon') 64bit
  162.       _STATISTICS_WRITING_APP-eng: mkvmerge v8.3.0 ('Over the Horizon') 64bit
  163.       _STATISTICS_WRITING_DATE_UTC: 2017-02-27 19:16:12
  164.       _STATISTICS_WRITING_DATE_UTC-eng: 2017-02-27 19:16:12
  165.       _STATISTICS_TAGS: BPS DURATION NUMBER_OF_FRAMES NUMBER_OF_BYTES
  166.       _STATISTICS_TAGS-eng: BPS DURATION NUMBER_OF_FRAMES NUMBER_OF_BYTES
  167.       encoder         : Lavc58.35.100 hevc_nvenc
  168.     Side data:
  169.       cpb: bitrate max/min/avg: 0/0/2000000 buffer size: 4000000 vbv_delay: -1
  170.     Stream #0:1(ger): Audio: aac (LC) (mp4a / 0x6134706D), 48000 Hz, 5.1(side), fltp, 394 kb/s (default)
  171.     Metadata:
  172.       BPS             : 640000
  173.       BPS-eng         : 640000
  174.       DURATION        : 01:35:50.688000000
  175.       DURATION-eng    : 01:35:50.688000000
  176.       NUMBER_OF_FRAMES: 179709
  177.       NUMBER_OF_FRAMES-eng: 179709
  178.       NUMBER_OF_BYTES : 460055040
  179.       NUMBER_OF_BYTES-eng: 460055040
  180.       _STATISTICS_WRITING_APP: mkvmerge v8.3.0 ('Over the Horizon') 64bit
  181.       _STATISTICS_WRITING_APP-eng: mkvmerge v8.3.0 ('Over the Horizon') 64bit
  182.       _STATISTICS_WRITING_DATE_UTC: 2017-02-27 19:16:12
  183.       _STATISTICS_WRITING_DATE_UTC-eng: 2017-02-27 19:16:12
  184.       _STATISTICS_TAGS: BPS DURATION NUMBER_OF_FRAMES NUMBER_OF_BYTES
  185.       _STATISTICS_TAGS-eng: BPS DURATION NUMBER_OF_FRAMES NUMBER_OF_BYTES
  186.       encoder         : Lavc58.35.100 aac
  187. frame=137883 fps=164 q=14.0 Lsize= 1662363kB time=01:35:50.82 bitrate=2368.0kbits/s dup=5 drop=0 speed=6.85x

Quellcode

Hier kannst du den Code kopieren und ihn in deinen bevorzugten Editor einfügen. Alternativ kannst du den gesamten Eintrag auch als Datei herunterladen.