NoPaste

mediainfo von original 00000.MTS

von ren22
Beschreibung:
mediainfo von original 00000.MTS
Snippet erstellt:
11.09.2019 23:25:01
Snippet wird automatisch gelöscht:
Niemals

Dein Code:
  1. General
  2. Count                                    : 324
  3. Count of stream of this kind             : 1
  4. Kind of stream                           : General
  5. Kind of stream                           : General
  6. Stream identifier                        : 0
  7. Inform                                   : BDAV: 20.8 MiB, 7 s 576 ms
  8. ID                                       : 1
  9. ID                                       : 1 (0x1)
  10. Count of video streams                   : 1
  11. Count of audio streams                   : 1
  12. Count of text streams                    : 1
  13. Video_Format_List                        : AVC
  14. Video_Format_WithHint_List               : AVC
  15. Codecs Video                             : AVC
  16. Audio_Format_List                        : AC-3
  17. Audio_Format_WithHint_List               : AC-3
  18. Audio codecs                             : AC3
  19. Text_Format_List                         : PGS
  20. Text_Format_WithHint_List                : PGS
  21. Text codecs                              : PGS
  22. Complete name                            : /mnt/projekte/mtsjoin/00000.MTS
  23. Folder name                              : /mnt/projekte/mtsjoin
  24. File name                                : 00000
  25. File extension                           : MTS
  26. Format                                   : BDAV
  27. Format                                   : BDAV
  28. Format/Info                              : Blu-ray Video
  29. Format/Extensions usually used           : m2ts
  30. Commercial name                          : BDAV
  31. Codec                                    : BDAV
  32. Codec                                    : BDAV
  33. Codec/Info                               : Blu-ray Video
  34. Codec/Extensions usually used            : m2ts
  35. File size                                : 21786624
  36. File size                                : 20.8 MiB
  37. File size                                : 21 MiB
  38. File size                                : 21 MiB
  39. File size                                : 20.8 MiB
  40. File size                                : 20.78 MiB
  41. Duration                                 : 7576.154785
  42. Duration                                 : 7 s 576 ms
  43. Duration                                 : 7 s 576 ms
  44. Duration                                 : 7 s 576 ms
  45. Duration                                 : 00:00:07.576
  46. Duration                                 : 00:00:07:08
  47. Duration                                 : 00:00:07.576 (00:00:07:08)
  48. Overall bit rate mode                    : VBR
  49. Overall bit rate mode                    : Variable
  50. Overall bit rate                         : 22998576
  51. Overall bit rate                         : 23.0 Mb/s
  52. Maximum Overall bit rate                 : 28000000
  53. Maximum Overall bit rate                 : 28.0 Mb/s
  54. Frame rate                               : 50.000
  55. Frame rate                               : 50.000 FPS
  56. Frame count                              : 358
  57. Stream size                              : 2024242
  58. Stream size                              : 1.93 MiB (9%)
  59. Stream size                              : 2 MiB
  60. Stream size                              : 1.9 MiB
  61. Stream size                              : 1.93 MiB
  62. Stream size                              : 1.930 MiB
  63. Stream size                              : 1.93 MiB (9%)
  64. Proportion of this stream                : 0.09291
  65. File last modification date              : UTC 2019-09-11 19:24:46
  66. File last modification date (local)      : 2019-09-11 21:24:46
  67. OverallBitRate_Precision_Min             : 22997057
  68. OverallBitRate_Precision_Max             : 23000095
  69.  
  70. Video
  71. Count                                    : 335
  72. Count of stream of this kind             : 1
  73. Kind of stream                           : Video
  74. Kind of stream                           : Video
  75. Stream identifier                        : 0
  76. StreamOrder                              : 0-0
  77. Inform                                   : 21.7 Mb/s, 1920*1080 (16:9), at 50.000 FPS, AVC (High@L4.2) (CABAC / 4 Ref Frames)
  78. ID                                       : 4113
  79. ID                                       : 4113 (0x1011)
  80. Menu ID                                  : 1
  81. Menu ID                                  : 1 (0x1)
  82. Format                                   : AVC
  83. Format/Info                              : Advanced Video Codec
  84. Format/Url                               : http://developers.videolan.org/x264.html
  85. Commercial name                          : AVC
  86. Format profile                           : High@L4.2
  87. Format settings                          : CABAC / 4 Ref Frames
  88. Format settings, CABAC                   : Yes
  89. Format settings, CABAC                   : Yes
  90. Format settings, ReFrames                : 4
  91. Format settings, ReFrames                : 4 frames
  92. Format settings, GOP                     : M=3, N=24
  93. Internet media type                      : video/H264
  94. Codec ID                                 : 27
  95. Codec                                    : AVC
  96. Codec                                    : AVC
  97. Codec/Family                             : AVC
  98. Codec/Info                               : Advanced Video Codec
  99. Codec/Url                                : http://developers.videolan.org/x264.html
  100. Codec profile                            : High@L4.2
  101. Codec settings                           : CABAC / 4 Ref Frames
  102. Codec settings, CABAC                    : Yes
  103. Codec_Settings_RefFrames                 : 4
  104. Duration                                 : 7160
  105. Duration                                 : 7 s 160 ms
  106. Duration                                 : 7 s 160 ms
  107. Duration                                 : 7 s 160 ms
  108. Duration                                 : 00:00:07.160
  109. Duration                                 : 00:00:07:08
  110. Duration                                 : 00:00:07.160 (00:00:07:08)
  111. Bit rate mode                            : VBR
  112. Bit rate mode                            : Variable
  113. Bit rate                                 : 21693012
  114. Bit rate                                 : 21.7 Mb/s
  115. Maximum bit rate                         : 26000000
  116. Maximum bit rate                         : 26.0 Mb/s
  117. Width                                    : 1920
  118. Width                                    : 1 920 pixels
  119. Height                                   : 1080
  120. Height                                   : 1 080 pixels
  121. Stored_Height                            : 1088
  122. Sampled_Width                            : 1920
  123. Sampled_Height                           : 1080
  124. Pixel aspect ratio                       : 1.000
  125. Display aspect ratio                     : 1.778
  126. Display aspect ratio                     : 16:9
  127. Frame rate                               : 50.000
  128. Frame rate                               : 50.000 FPS
  129. Frame count                              : 358
  130. Resolution                               : 8
  131. Resolution                               : 8 bits
  132. Colorimetry                              : 4:2:0
  133. Color space                              : YUV
  134. Chroma subsampling                       : 4:2:0
  135. Chroma subsampling                       : 4:2:0
  136. Bit depth                                : 8
  137. Bit depth                                : 8 bits
  138. Scan type                                : Progressive
  139. Scan type                                : Progressive
  140. Interlacement                            : PPF
  141. Interlacement                            : Progressive
  142. Bits/(Pixel*Frame)                       : 0.209
  143. Delay                                    : 861.644
  144. Delay                                    : 862 ms
  145. Delay                                    : 862 ms
  146. Delay                                    : 862 ms
  147. Delay                                    : 00:00:00.862
  148. Delay, origin                            : Container
  149. Delay, origin                            : Container
  150. Stream size                              : 19415246
  151. Stream size                              : 18.5 MiB (89%)
  152. Stream size                              : 19 MiB
  153. Stream size                              : 19 MiB
  154. Stream size                              : 18.5 MiB
  155. Stream size                              : 18.52 MiB
  156. Stream size                              : 18.5 MiB (89%)
  157. Proportion of this stream                : 0.89115
  158. Buffer size                              : 20800000
  159. format_identifier                        : HDMV
  160.  
  161. Audio
  162. Count                                    : 294
  163. Count of stream of this kind             : 1
  164. Kind of stream                           : Audio
  165. Kind of stream                           : Audio
  166. Stream identifier                        : 0
  167. StreamOrder                              : 0-1
  168. Inform                                   : 384 kb/s, 48.0 kHz, 16 bits, 6 channels, AC-3
  169. ID                                       : 4352
  170. ID                                       : 4352 (0x1100)
  171. Menu ID                                  : 1
  172. Menu ID                                  : 1 (0x1)
  173. Format                                   : AC-3
  174. Format/Info                              : Audio Coding 3
  175. Commercial name                          : AC-3
  176. Mode extension                           : CM (complete main)
  177. Format settings, Endianness              : Big
  178. Codec ID                                 : 129
  179. Codec                                    : AC3
  180. Codec                                    : AC3
  181. Duration                                 : 7232
  182. Duration                                 : 7 s 232 ms
  183. Duration                                 : 7 s 232 ms
  184. Duration                                 : 7 s 232 ms
  185. Duration                                 : 00:00:07.232
  186. Duration                                 : 00:00:07:09
  187. Duration                                 : 00:00:07.232 (00:00:07:09)
  188. Bit rate mode                            : CBR
  189. Bit rate mode                            : Constant
  190. Bit rate                                 : 384000
  191. Bit rate                                 : 384 kb/s
  192. Channel(s)                               : 6
  193. Channel(s)                               : 6 channels
  194. Channel positions                        : Front: L C R, Side: L R, LFE
  195. Channel positions                        : 3/2/0.1
  196. ChannelLayout                            : L C R LFE Ls Rs
  197. Samples per frame                        : 1536
  198. Sampling rate                            : 48000
  199. Sampling rate                            : 48.0 kHz
  200. Samples count                            : 347136
  201. Frame rate                               : 31.250
  202. Frame rate                               : 31.250 FPS (1536 spf)
  203. Frame count                              : 226
  204. Resolution                               : 16
  205. Resolution                               : 16 bits
  206. Bit depth                                : 16
  207. Bit depth                                : 16 bits
  208. Compression mode                         : Lossy
  209. Compression mode                         : Lossy
  210. Delay                                    : 821.644
  211. Delay                                    : 822 ms
  212. Delay                                    : 822 ms
  213. Delay                                    : 822 ms
  214. Delay                                    : 00:00:00.822
  215. Delay, origin                            : Container
  216. Delay, origin                            : Container
  217. Delay relative to video                  : -40
  218. Delay relative to video                  : -40 ms
  219. Delay relative to video                  : -40 ms
  220. Delay relative to video                  : -40 ms
  221. Delay relative to video                  : -00:00:00.040
  222. Video0 delay                             : -40
  223. Video0 delay                             : -40 ms
  224. Video0 delay                             : -40 ms
  225. Video0 delay                             : -40 ms
  226. Video0 delay                             : -00:00:00.040
  227. Stream size                              : 347136
  228. Stream size                              : 339 KiB (2%)
  229. Stream size                              : 339 KiB
  230. Stream size                              : 339 KiB
  231. Stream size                              : 339 KiB
  232. Stream size                              : 339.0 KiB
  233. Stream size                              : 339 KiB (2%)
  234. Proportion of this stream                : 0.01593
  235. bsid                                     : 4
  236. dialnorm                                 : -31
  237. dialnorm                                 : -31 dB
  238. compr                                    : -0.28
  239. compr                                    : -0.28 dB
  240. acmod                                    : 7
  241. lfeon                                    : 1
  242. dialnorm_Average                         : -31
  243. dialnorm_Average                         : -31 dB
  244. dialnorm_Minimum                         : -31
  245. dialnorm_Minimum                         : -31 dB
  246. dialnorm_Maximum                         : -31
  247. dialnorm_Maximum                         : -31 dB
  248. dialnorm_Count                           : 226
  249. compr_Average                            : -0.28
  250. compr_Average                            : -0.28 dB
  251. compr_Minimum                            : -0.28
  252. compr_Minimum                            : -0.28 dB
  253. compr_Maximum                            : -0.28
  254. compr_Maximum                            : -0.28 dB
  255. compr_Count                              : 226
  256. format_identifier                        : AC-3
  257.  
  258. Text
  259. Count                                    : 234
  260. Count of stream of this kind             : 1
  261. Kind of stream                           : Text
  262. Kind of stream                           : Text
  263. Stream identifier                        : 0
  264. StreamOrder                              : 0-2
  265. Inform                                   : PGS
  266. ID                                       : 4608
  267. ID                                       : 4608 (0x1200)
  268. Menu ID                                  : 1
  269. Menu ID                                  : 1 (0x1)
  270. Format                                   : PGS
  271. Commercial name                          : PGS
  272. Codec ID                                 : 144
  273. Codec                                    : PGS
  274. Codec                                    : PGS
  275. Duration                                 : 6656
  276. Duration                                 : 6 s 656 ms
  277. Duration                                 : 6 s 656 ms
  278. Duration                                 : 6 s 656 ms
  279. Duration                                 : 00:00:06.656
  280. Duration                                 : 00:00:06.656
  281. Delay                                    : 821.644
  282. Delay                                    : 822 ms
  283. Delay                                    : 822 ms
  284. Delay                                    : 822 ms
  285. Delay                                    : 00:00:00.822
  286. Delay, origin                            : Container
  287. Delay, origin                            : Container
  288. Delay relative to video                  : -40
  289. Delay relative to video                  : -40 ms
  290. Delay relative to video                  : -40 ms
  291. Delay relative to video                  : -40 ms
  292. Delay relative to video                  : -00:00:00.040
  293. Video0 delay                             : -40
  294. Video0 delay                             : -40 ms
  295. Video0 delay                             : -40 ms
  296. Video0 delay                             : -40 ms
  297. Video0 delay                             : -00:00:00.040

Quellcode

Hier kannst du den Code kopieren und ihn in deinen bevorzugten Editor einfügen. Alternativ kannst du den gesamten Eintrag auch als Datei herunterladen.