NoPaste

ffmpeg concat

von paul1234

Dein Code:
  1. ~/Downloads$ ffmpeg -i "concat:neu1.mp4|neu2.mp4" -c copy output.mp4
  2. ffmpeg version 4.1.6-1~deb10u1 Copyright (c) 2000-2020 the FFmpeg developers
  3.   built with gcc 8 (Debian 8.3.0-6)
  4.   configuration: --prefix=/usr --extra-version='1~deb10u1' --toolchain=hardened --libdir=/usr/lib/x86_64-linux-gnu --incdir=/usr/include/x86_64-linux-gnu --arch=amd64 --enable-gpl --disable-stripping --enable-avresample --disable-filter=resample --enable-avisynth --enable-gnutls --enable-ladspa --enable-libaom --enable-libass --enable-libbluray --enable-libbs2b --enable-libcaca --enable-libcdio --enable-libcodec2 --enable-libflite --enable-libfontconfig --enable-libfreetype --enable-libfribidi --enable-libgme --enable-libgsm --enable-libjack --enable-libmp3lame --enable-libmysofa --enable-libopenjpeg --enable-libopenmpt --enable-libopus --enable-libpulse --enable-librsvg --enable-librubberband --enable-libshine --enable-libsnappy --enable-libsoxr --enable-libspeex --enable-libssh --enable-libtheora --enable-libtwolame --enable-libvidstab --enable-libvorbis --enable-libvpx --enable-libwavpack --enable-libwebp --enable-libx265 --enable-libxml2 --enable-libxvid --enable-libzmq --enable-libzvbi --enable-lv2 --enable-omx --enable-openal --enable-opengl --enable-sdl2 --enable-libdc1394 --enable-libdrm --enable-libiec61883 --enable-chromaprint --enable-frei0r --enable-libx264 --enable-shared
  5.   libavutil      56. 22.100 / 56. 22.100
  6.   libavcodec     58. 35.100 / 58. 35.100
  7.   libavformat    58. 20.100 / 58. 20.100
  8.   libavdevice    58.  5.100 / 58.  5.100
  9.   libavfilter     7. 40.101 /  7. 40.101
  10.   libavresample   4.  0.  0 /  4.  0.  0
  11.   libswscale      5.  3.100 /  5.  3.100
  12.   libswresample   3.  3.100 /  3.  3.100
  13.   libpostproc    55.  3.100 / 55.  3.100
  14. [mov,mp4,m4a,3gp,3g2,mj2 @ 0x55fc746f8800] Found duplicated MOOV Atom. Skipped it
  15. Input #0, mov,mp4,m4a,3gp,3g2,mj2, from 'concat:neu1.mp4|neu2.mp4':
  16.  Metadata:
  17.     hd_video        : 0
  18.     major_brand     : isom
  19.     minor_version   : 512
  20.     title           : Kojak - Einsatz in Manhattan
  21.     encoder         : Lavf58.20.100
  22.     genre           : Krimiserie
  23.     description     : Dr. Page, Psychiaterin in einer großen Klinik, hat einen schrecklichen Verdacht: Sie glaubt, dass einer ihrer Patienten mehrere Morde am Personal begangen haben könnte. Sie fühlt sich mitverantwortlich, weil sie den Killer noch nicht identifizieren kon
  24.     episode_id      : 18
  25.     network         : SAT.1 Gold
  26.     season_number   : 5
  27.     compatible_brands: isomiso2avc1mp41
  28.   Duration: 00:28:01.00, start: 0.000000, bitrate: 1398 kb/s
  29.     Stream #0:0(und): Video: h264 (Main) (avc1 / 0x31637661), yuv420p, 720x576 [SAR 64:45 DAR 16:9], 689 kb/s, 25 fps, 25 tbr, 90k tbn, 50 tbc (default)
  30.    Metadata:
  31.       handler_name    : VideoHandler
  32.     Stream #0:1(und): Audio: aac (LC) (mp4a / 0x6134706D), 48000 Hz, stereo, fltp, 127 kb/s (default)
  33.    Metadata:
  34.       handler_name    : SoundHandler
  35. Output #0, mp4, to 'output.mp4':
  36.  Metadata:
  37.     hd_video        : 0
  38.     major_brand     : isom
  39.     minor_version   : 512
  40.     title           : Kojak - Einsatz in Manhattan
  41.     compatible_brands: isomiso2avc1mp41
  42.     genre           : Krimiserie
  43.     description     : Dr. Page, Psychiaterin in einer großen Klinik, hat einen schrecklichen Verdacht: Sie glaubt, dass einer ihrer Patienten mehrere Morde am Personal begangen haben könnte. Sie fühlt sich mitverantwortlich, weil sie den Killer noch nicht identifizieren kon
  44.     episode_id      : 18
  45.     network         : SAT.1 Gold
  46.     season_number   : 5
  47.     encoder         : Lavf58.20.100
  48.     Stream #0:0(und): Video: h264 (Main) (avc1 / 0x31637661), yuv420p, 720x576 [SAR 64:45 DAR 16:9], q=2-31, 689 kb/s, 25 fps, 25 tbr, 90k tbn, 90k tbc (default)
  49.    Metadata:
  50.       handler_name    : VideoHandler
  51.     Stream #0:1(und): Audio: aac (LC) (mp4a / 0x6134706D), 48000 Hz, stereo, fltp, 127 kb/s (default)
  52.    Metadata:
  53.       handler_name    : SoundHandler
  54. Stream mapping:
  55.   Stream #0:0 -> #0:0 (copy)
  56.  Stream #0:1 -> #0:1 (copy)
  57. Press [q] to stop, [?] for help
  58. frame=42025 fps=18714 q=-1.0 Lsize=  168861kB time=00:27:59.99 bitrate= 823.4kbits/s speed= 748x      
  59. video:141508kB audio:26258kB subtitle:0kB other streams:0kB global headers:0kB muxing overhead: 0.652308%

Quellcode

Hier kannst du den Code kopieren und ihn in deinen bevorzugten Editor einfügen. Du kannst den Quellcode auch herunterladen.