NoPaste

dumpstream Testdatei Fehler

von paul1234

SNIPPET_TEXT:
  1. $ mplayer dvd://08 -dumpstream -dumpfile /dev/stdout | ffmpeg -ss 00:04:00 -t 00:06:00 -i - -f matroska -map 08:a:1 -c:v libx264 -b:v 500k -c:a copy ATL_VOL06_D3.mkv
  2. ffmpeg version 4.1.6-1~deb10u1 Copyright (c) 2000-2020 the FFmpeg developers
  3.   built with gcc 8 (Debian 8.3.0-6)
  4.   configuration: --prefix=/usr --extra-version='1~deb10u1' --toolchain=hardened --libdir=/usr/lib/x86_64-linux-gnu --incdir=/usr/include/x86_64-linux-gnu --arch=amd64 --enable-gpl --disable-stripping --enable-avresample --disable-filter=resample --enable-avisynth --enable-gnutls --enable-ladspa --enable-libaom --enable-libass --enable-libbluray --enable-libbs2b --enable-libcaca --enable-libcdio --enable-libcodec2 --enable-libflite --enable-libfontconfig --enable-libfreetype --enable-libfribidi --enable-libgme --enable-libgsm --enable-libjack --enable-libmp3lame --enable-libmysofa --enable-libopenjpeg --enable-libopenmpt --enable-libopus --enable-libpulse --enable-librsvg --enable-librubberband --enable-libshine --enable-libsnappy --enable-libsoxr --enable-libspeex --enable-libssh --enable-libtheora --enable-libtwolame --enable-libvidstab --enable-libvorbis --enable-libvpx --enable-libwavpack --enable-libwebp --enable-libx265 --enable-libxml2 --enable-libxvid --enable-libzmq --enable-libzvbi --enable-lv2 --enable-omx --enable-openal --enable-opengl --enable-sdl2 --enable-libdc1394 --enable-libdrm --enable-libiec61883 --enable-chromaprint --enable-frei0r --enable-libx264 --enable-shared
  5.   libavutil      56. 22.100 / 56. 22.100
  6.   libavcodec     58. 35.100 / 58. 35.100
  7.   libavformat    58. 20.100 / 58. 20.100
  8.   libavdevice    58.  5.100 / 58.  5.100
  9.   libavfilter     7. 40.101 /  7. 40.101
  10.   libavresample   4.  0.  0 /  4.  0.  0
  11.   libswscale      5.  3.100 /  5.  3.100
  12.   libswresample   3.  3.100 /  3.  3.100
  13.   libpostproc    55.  3.100 / 55.  3.100
  14. do_connect: could not connect to socket
  15. connect: No such file or directory
  16. Failed to open LIRC support. You will not be able to use your remote control.
  17.  
  18. libdvdread: Attempting to retrieve all CSS keys
  19. libdvdread: This can take a _long_ time, please be patient
  20.  
  21. libdvdread: Get key for /VIDEO_TS/VIDEO_TS.VOB at 0x0000015c
  22. libdvdread: Elapsed time 0
  23. libdvdread: Get key for /VIDEO_TS/VTS_01_1.VOB at 0x000020bf
  24. libdvdread: Elapsed time 0
  25. libdvdread: Get key for /VIDEO_TS/VTS_02_1.VOB at 0x000020f2
  26. libdvdread: Elapsed time 0
  27. libdvdread: Get key for /VIDEO_TS/VTS_03_1.VOB at 0x000026c1
  28. libdvdread: Elapsed time 0
  29. libdvdread: Get key for /VIDEO_TS/VTS_04_1.VOB at 0x000026df
  30. libdvdread: Elapsed time 0
  31. libdvdread: Get key for /VIDEO_TS/VTS_05_1.VOB at 0x000026f9
  32. libdvdread: Elapsed time 0
  33. libdvdread: Get key for /VIDEO_TS/VTS_06_1.VOB at 0x00002713
  34. libdvdread: Elapsed time 0
  35. libdvdread: Get key for /VIDEO_TS/VTS_07_1.VOB at 0x0000272d
  36. libdvdread: Elapsed time 0
  37. libdvdread: Get key for /VIDEO_TS/VTS_08_1.VOB at 0x0000274a
  38. libdvdread: Elapsed time 0
  39. libdvdread: Get key for /VIDEO_TS/VTS_09_1.VOB at 0x000335f4
  40. libdvdread: Elapsed time 0
  41. libdvdread: Get key for /VIDEO_TS/VTS_10_0.VOB at 0x00033666
  42. libdvdread: Elapsed time 0
  43. libdvdread: Get key for /VIDEO_TS/VTS_10_1.VOB at 0x0005c429
  44. libdvdread: Elapsed time 0
  45. libdvdread: Get key for /VIDEO_TS/VTS_11_1.VOB at 0x00392030
  46. libdvdread: Elapsed time 0
  47. libdvdread: Get key for /VIDEO_TS/VTS_12_1.VOB at 0x00395641
  48. libdvdread: Elapsed time 0
  49. libdvdread: Get key for /VIDEO_TS/VTS_13_1.VOB at 0x0039e3c8
  50. libdvdread: Elapsed time 0
  51. libdvdread: Get key for /VIDEO_TS/VTS_14_1.VOB at 0x003a7516
  52. libdvdread: Elapsed time 0
  53. libdvdread: Get key for /VIDEO_TS/VTS_15_1.VOB at 0x003a7533
  54. libdvdread: Elapsed time 0
  55. libdvdread: Get key for /VIDEO_TS/VTS_16_1.VOB at 0x003d9454
  56. libdvdread: Elapsed time 0
  57. libdvdread: Get key for /VIDEO_TS/VTS_17_1.VOB at 0x003d946e
  58. libdvdread: Elapsed time 0
  59. libdvdread: Found 17 VTS's
  60. libdvdread: Elapsed time 0
  61. pipe:: could not seek to position 240.337
  62. Input #0, mpeg, from 'pipe:':
  63.  Duration: N/A, start: 0.336711, bitrate: 8224 kb/s
  64.    Stream #0:0[0x1e0]: Video: mpeg2video (Main), yuv420p(tv, progressive), 720x576 [SAR 64:45 DAR 16:9], 8000 kb/s, 25 tbr, 90k tbn, 50 tbc
  65.    Stream #0:1[0x20]: Subtitle: dvd_subtitle
  66.    Stream #0:2[0x80]: Audio: ac3, 48000 Hz, stereo, fltp, 224 kb/s
  67. Stream map '08:a:1' matches no streams.
  68. To ignore this, add a trailing '?' to the map.

Quellcode

Hier kannst du den Code kopieren und ihn in deinen bevorzugten Editor einfügen. PASTEBIN_DOWNLOAD_SNIPPET_EXPLAIN