NoPaste

$ ffmpeg -i vts_10_1.vob

von paul1234

SNIPPET_TEXT:
  1. $ ffmpeg -i vts_10_1.vob
  2. ffmpeg version 4.1.6-1~deb10u1 Copyright (c) 2000-2020 the FFmpeg developers
  3.   built with gcc 8 (Debian 8.3.0-6)
  4.   configuration: --prefix=/usr --extra-version='1~deb10u1' --toolchain=hardened --libdir=/usr/lib/x86_64-linux-gnu --incdir=/usr/include/x86_64-linux-gnu --arch=amd64 --enable-gpl --disable-stripping --enable-avresample --disable-filter=resample --enable-avisynth --enable-gnutls --enable-ladspa --enable-libaom --enable-libass --enable-libbluray --enable-libbs2b --enable-libcaca --enable-libcdio --enable-libcodec2 --enable-libflite --enable-libfontconfig --enable-libfreetype --enable-libfribidi --enable-libgme --enable-libgsm --enable-libjack --enable-libmp3lame --enable-libmysofa --enable-libopenjpeg --enable-libopenmpt --enable-libopus --enable-libpulse --enable-librsvg --enable-librubberband --enable-libshine --enable-libsnappy --enable-libsoxr --enable-libspeex --enable-libssh --enable-libtheora --enable-libtwolame --enable-libvidstab --enable-libvorbis --enable-libvpx --enable-libwavpack --enable-libwebp --enable-libx265 --enable-libxml2 --enable-libxvid --enable-libzmq --enable-libzvbi --enable-lv2 --enable-omx --enable-openal --enable-opengl --enable-sdl2 --enable-libdc1394 --enable-libdrm --enable-libiec61883 --enable-chromaprint --enable-frei0r --enable-libx264 --enable-shared
  5.   libavutil      56. 22.100 / 56. 22.100
  6.   libavcodec     58. 35.100 / 58. 35.100
  7.   libavformat    58. 20.100 / 58. 20.100
  8.   libavdevice    58.  5.100 / 58.  5.100
  9.   libavfilter     7. 40.101 /  7. 40.101
  10.   libavresample   4.  0.  0 /  4.  0.  0
  11.   libswscale      5.  3.100 /  5.  3.100
  12.   libswresample   3.  3.100 /  3.  3.100
  13.   libpostproc    55.  3.100 / 55.  3.100
  14. Input #0, mpeg, from 'vts_10_1.vob':
  15.  Duration: 00:25:09.82, start: 0.287267, bitrate: 5689 kb/s
  16.     Stream #0:0[0x1bf]: Data: dvd_nav_packet
  17.    Stream #0:1[0x1e0]: Video: mpeg2video (Main), yuv420p(tv, top first), 720x576 [SAR 64:45 DAR 16:9], 25 fps, 25 tbr, 90k tbn, 50 tbc
  18.    Stream #0:2[0x80]: Audio: ac3, 48000 Hz, 5.1(side), fltp, 448 kb/s
  19.    Stream #0:3[0x81]: Audio: ac3, 48000 Hz, 5.1(side), fltp, 448 kb/s
  20.    Stream #0:4[0x82]: Audio: ac3, 48000 Hz, stereo, fltp, 192 kb/s
  21.    Stream #0:5[0x20]: Subtitle: dvd_subtitle
  22.    Stream #0:6[0x21]: Subtitle: dvd_subtitle
  23.    Stream #0:7[0x23]: Subtitle: dvd_subtitle
  24.    Stream #0:8[0x22]: Subtitle: dvd_subtitle
  25. At least one output file must be specified

Quellcode

Hier kannst du den Code kopieren und ihn in deinen bevorzugten Editor einfügen. PASTEBIN_DOWNLOAD_SNIPPET_EXPLAIN