NoPaste

VOB zu MKV

von wckl
SNIPPET_DESC:
Gesamte Ausgabe der KOnvertierung
SNIPPET_CREATION_TIME:
25.12.2021 17:22:26
SNIPPET_PRUNE_TIME:
24.01.2022 17:22:26

SNIPPET_TEXT:
  1. ffmpeg -i VTS_01_1.VOB -map 0:1 -map 0:2 -vcodec copy -acodec copy VTS_01_1.mkv
  2. ffmpeg version 4.4.1-2+b1 Copyright (c) 2000-2021 the FFmpeg developers
  3.   built with gcc 11 (Debian 11.2.0-12)
  4.   configuration: --prefix=/usr --extra-version=2+b1 --toolchain=hardened --libdir=/usr/lib/x86_64-linux-gnu --incdir=/usr/include/x86_64-linux-gnu --arch=amd64 --enable-gpl --disable-stripping --enable-gnutls --enable-ladspa --enable-libaom --enable-libass --enable-libbluray --enable-libbs2b --enable-libcaca --enable-libcdio --enable-libcodec2 --enable-libdav1d --enable-libflite --enable-libfontconfig --enable-libfreetype --enable-libfribidi --enable-libgme --enable-libgsm --enable-libjack --enable-libmp3lame --enable-libmysofa --enable-libopenjpeg --enable-libopenmpt --enable-libopus --enable-libpulse --enable-librabbitmq --enable-librubberband --enable-libshine --enable-libsnappy --enable-libsoxr --enable-libspeex --enable-libsrt --enable-libssh --enable-libtheora --enable-libtwolame --enable-libvidstab --enable-libvorbis --enable-libvpx --enable-libwebp --enable-libx265 --enable-libxml2 --enable-libxvid --enable-libzimg --enable-libzmq --enable-libzvbi --enable-lv2 --enable-omx --enable-openal --enable-opencl --enable-opengl --enable-sdl2 --enable-pocketsphinx --enable-librsvg --enable-libmfx --enable-libdc1394 --enable-libdrm --enable-libiec61883 --enable-chromaprint --enable-frei0r --enable-libx264 --enable-shared
  5.   WARNING: library configuration mismatch
  6.   avcodec     configuration: --prefix=/usr --extra-version=2+b1 --toolchain=hardened --libdir=/usr/lib/x86_64-linux-gnu --incdir=/usr/include/x86_64-linux-gnu --arch=amd64 --enable-gpl --disable-stripping --enable-gnutls --enable-ladspa --enable-libaom --enable-libass --enable-libbluray --enable-libbs2b --enable-libcaca --enable-libcdio --enable-libcodec2 --enable-libdav1d --enable-libflite --enable-libfontconfig --enable-libfreetype --enable-libfribidi --enable-libgme --enable-libgsm --enable-libjack --enable-libmp3lame --enable-libmysofa --enable-libopenjpeg --enable-libopenmpt --enable-libopus --enable-libpulse --enable-librabbitmq --enable-librubberband --enable-libshine --enable-libsnappy --enable-libsoxr --enable-libspeex --enable-libsrt --enable-libssh --enable-libtheora --enable-libtwolame --enable-libvidstab --enable-libvorbis --enable-libvpx --enable-libwebp --enable-libx265 --enable-libxml2 --enable-libxvid --enable-libzimg --enable-libzmq --enable-libzvbi --enable-lv2 --enable-omx --enable-openal --enable-opencl --enable-opengl --enable-sdl2 --enable-pocketsphinx --enable-librsvg --enable-libmfx --enable-libdc1394 --enable-libdrm --enable-libiec61883 --enable-chromaprint --enable-frei0r --enable-libx264 --enable-shared --enable-version3 --disable-doc --disable-programs --enable-libaribb24 --enable-libopencore_amrnb --enable-libopencore_amrwb --enable-libtesseract --enable-libvo_amrwbenc --enable-libsmbclient
  7.   libavutil      56. 70.100 / 56. 70.100
  8.   libavcodec     58.134.100 / 58.134.100
  9.   libavformat    58. 76.100 / 58. 76.100
  10.   libavdevice    58. 13.100 / 58. 13.100
  11.   libavfilter     7.110.100 /  7.110.100
  12.   libswscale      5.  9.100 /  5.  9.100
  13.   libswresample   3.  9.100 /  3.  9.100
  14.   libpostproc    55.  9.100 / 55.  9.100
  15. Input #0, mpeg, from 'VTS_01_1.VOB':
  16.   Duration: 00:01:30.75, start: 0.218044, bitrate: 93917 kb/s
  17.   Stream #0:0[0x1bf]: Data: dvd_nav_packet
  18.   Stream #0:1[0x80]: Audio: ac3, 48000 Hz, stereo, fltp, 256 kb/s
  19.   Stream #0:2[0x1e0]: Video: mpeg2video (Main), yuv420p(tv, top first), 720x576 [SAR 16:15 DAR 4:3], Closed Captions, 25 fps, 25 tbr, 90k tbn, 50 tbc
  20.     Side data:
  21.       cpb: bitrate max/min/avg: 9396000/0/0 buffer size: 1835008 vbv_delay: N/A
  22. Output #0, matroska, to 'VTS_01_1.mkv':
  23.   Metadata:
  24.     encoder         : Lavf58.76.100
  25.   Stream #0:0: Audio: ac3 ([0] [0][0] / 0x2000), 48000 Hz, stereo, fltp, 256 kb/s
  26.   Stream #0:1: Video: mpeg2video (Main) (mpg2 / 0x3267706D), yuv420p(tv, top first), 720x576 [SAR 16:15 DAR 4:3], q=2-31, 25 fps, 25 tbr, 1k tbn, 90k tbc
  27.     Side data:
  28.       cpb: bitrate max/min/avg: 9396000/0/0 buffer size: 1835008 vbv_delay: N/A
  29. Stream mapping:
  30.   Stream #0:1 -> #0:0 (copy)
  31.   Stream #0:2 -> #0:1 (copy)
  32. Press [q] to stop, [?] for help
  33. [matroska @ 0x558558eec000] Non-monotonous DTS in output stream 0:1; previous: 368536, current: 368512; changing to 368536. This may result in incorrect timestamps in the output file.
  34. [matroska @ 0x558558eec000] Non-monotonous DTS in output stream 0:1; previous: 859896, current: 859872; changing to 859896. This may result in incorrect timestamps in the output file.
  35. [matroska @ 0x558558eec000] Non-monotonous DTS in output stream 0:1; previous: 1228408, current: 1228384; changing to 1228408. This may result in incorrect timestamps in the output file.
  36. [matroska @ 0x558558eec000] Non-monotonous DTS in output stream 0:1; previous: 1351224, current: 1351200; changing to 1351224. This may result in incorrect timestamps in the output file.
  37. [matroska @ 0x558558eec000] Non-monotonous DTS in output stream 0:1; previous: 1596888, current: 1596864; changing to 1596888. This may result in incorrect timestamps in the output file.
  38. frame=45268 fps=1264 q=-1.0 Lsize= 1011285kB time=00:30:10.03 bitrate=4577.0kbits/s speed=50.5x    
  39. video:953849kB audio:56572kB subtitle:0kB other streams:0kB global headers:0kB muxing overhead: 0.085516%

Quellcode

Hier kannst du den Code kopieren und ihn in deinen bevorzugten Editor einfügen. PASTEBIN_DOWNLOAD_SNIPPET_EXPLAIN