NoPaste

Mediainfo der Ausgagsdatei VOB

von wckl
SNIPPET_DESC:
Informationen zur VOB Datei
SNIPPET_CREATION_TIME:
25.12.2021 17:28:09
SNIPPET_PRUNE_TIME:
24.01.2022 17:28:09

SNIPPET_TEXT:
  1. mediainfo VTS_01_1.VOB
  2. General
  3. Complete name                            : VTS_01_1.VOB
  4. Format                                   : MPEG-PS
  5. File size                                : 1 016 MiB
  6. Duration                                 : 1 min 30 s
  7. Overall bit rate mode                    : Variable
  8. Overall bit rate                         : 93.9 Mb/s
  9.  
  10. Video
  11. ID                                       : 224 (0xE0)
  12. Format                                   : MPEG Video
  13. Format version                           : Version 2
  14. Format profile                           : Main@Main
  15. Format settings                          : CustomMatrix / BVOP
  16. Format settings, BVOP                    : Yes
  17. Format settings, Matrix                  : Custom
  18. Format settings, GOP                     : M=3, N=12
  19. Format settings, picture structure       : Frame
  20. Duration                                 : 1 min 30 s
  21. Bit rate mode                            : Variable
  22. Bit rate                                 : 91.8 Mb/s
  23. Maximum bit rate                         : 9 396 kb/s
  24. Width                                    : 720 pixels
  25. Height                                   : 576 pixels
  26. Display aspect ratio                     : 4:3
  27. Frame rate                               : 25.000 FPS
  28. Standard                                 : PAL
  29. Color space                              : YUV
  30. Chroma subsampling                       : 4:2:0
  31. Bit depth                                : 8 bits
  32. Scan type                                : Interlaced
  33. Scan order                               : Top Field First
  34. Compression mode                         : Lossy
  35. Bits/(Pixel*Frame)                       : 8.853
  36. Time code of first frame                 : 00:00:00:00
  37. Time code source                         : Group of pictures header
  38. GOP, Open/Closed                         : Closed
  39. Stream size                              : 993 MiB (98%)
  40.  
  41. Audio
  42. ID                                       : 189 (0xBD)-128 (0x80)
  43. Format                                   : AC-3
  44. Format/Info                              : Audio Coding 3
  45. Commercial name                          : Dolby Digital
  46. Muxing mode                              : DVD-Video
  47. Duration                                 : 1 min 30 s
  48. Bit rate mode                            : Constant
  49. Bit rate                                 : 256 kb/s
  50. Channel(s)                               : 2 channels
  51. Channel layout                           : L R
  52. Sampling rate                            : 48.0 kHz
  53. Frame rate                               : 31.250 FPS (1536 SPF)
  54. Compression mode                         : Lossy
  55. Stream size                              : 2.75 MiB (0%)
  56. Service kind                             : Complete Main
  57.  
  58. Text
  59. ID                                       : 224 (0xE0)-CC3
  60. Format                                   : EIA-608
  61. Muxing mode, more info                   : Muxed in Video #1
  62. Duration                                 : 1 min 30 s
  63. Bit rate mode                            : Constant
  64. Stream size                              : 0.00 Byte (0%)
  65. CaptionServiceName                       : CC3
  66.  
  67. Menu

Quellcode

Hier kannst du den Code kopieren und ihn in deinen bevorzugten Editor einfügen. PASTEBIN_DOWNLOAD_SNIPPET_EXPLAIN