NoPaste

MKV Datei

von wckl
SNIPPET_DESC:
MKV Datei aus VOB Datei
SNIPPET_CREATION_TIME:
25.12.2021 17:32:22
SNIPPET_PRUNE_TIME:
24.01.2022 17:32:22

SNIPPET_TEXT:
  1. mediainfo VTS_01_1.mkv
  2. General
  3. Unique ID                                : 303233138860860283653628775749851267477 (0xE4209406A2F7B5C3098B996A5E37C195)
  4. Complete name                            : VTS_01_1.mkv
  5. Format                                   : Matroska
  6. Format version                           : Version 4
  7. File size                                : 988 MiB
  8. Duration                                 : 30 min 10 s
  9. Overall bit rate mode                    : Variable
  10. Overall bit rate                         : 4 577 kb/s
  11. Writing application                      : Lavf58.76.100
  12. Writing library                          : Lavf58.76.100
  13. ErrorDetectionType                       : Per level 1
  14.  
  15. Video
  16. ID                                       : 2
  17. Format                                   : MPEG Video
  18. Format version                           : Version 2
  19. Format profile                           : Main@Main
  20. Format settings                          : CustomMatrix / BVOP
  21. Format settings, BVOP                    : Yes
  22. Format settings, Matrix                  : Custom
  23. Format settings, GOP                     : M=3, N=12
  24. Format settings, picture structure       : Frame
  25. Codec ID                                 : V_MPEG2
  26. Codec ID/Info                            : MPEG 1 or 2 Video
  27. Duration                                 : 30 min 10 s
  28. Bit rate mode                            : Variable
  29. Bit rate                                 : 4 229 kb/s
  30. Maximum bit rate                         : 9 396 kb/s
  31. Width                                    : 720 pixels
  32. Height                                   : 576 pixels
  33. Display aspect ratio                     : 4:3
  34. Frame rate mode                          : Constant
  35. Frame rate                               : 25.000 FPS
  36. Standard                                 : PAL
  37. Color space                              : YUV
  38. Chroma subsampling                       : 4:2:0
  39. Bit depth                                : 8 bits
  40. Scan type                                : Interlaced
  41. Scan type, store method                  : Separated fields (2 fields per block)
  42. Scan order                               : Top Field First
  43. Compression mode                         : Lossy
  44. Bits/(Pixel*Frame)                       : 0.408
  45. Time code of first frame                 : 00:00:00:00
  46. Time code source                         : Group of pictures header
  47. GOP, Open/Closed                         : Closed
  48. Stream size                              : 913 MiB (92%)
  49. Default                                  : Yes
  50. Forced                                   : No
  51. Color range                              : Limited
  52.  
  53. Audio
  54. ID                                       : 1
  55. Format                                   : AC-3
  56. Format/Info                              : Audio Coding 3
  57. Commercial name                          : Dolby Digital
  58. Codec ID                                 : A_AC3
  59. Duration                                 : 30 min 9 s
  60. Bit rate mode                            : Constant
  61. Bit rate                                 : 256 kb/s
  62. Channel(s)                               : 2 channels
  63. Channel layout                           : L R
  64. Sampling rate                            : 48.0 kHz
  65. Frame rate                               : 31.250 FPS (1536 SPF)
  66. Bit depth                                : 32 bits
  67. Compression mode                         : Lossy
  68. Stream size                              : 55.2 MiB (6%)
  69. Service kind                             : Complete Main
  70. Default                                  : Yes
  71. Forced                                   : No

Quellcode

Hier kannst du den Code kopieren und ihn in deinen bevorzugten Editor einfügen. PASTEBIN_DOWNLOAD_SNIPPET_EXPLAIN