mts/m2ts Dateien zusammen fügen und Dauer korrigieren, möglich !?

Sound, Digitalkameras, TV+Video und Spiele.
Antworten
ren22
Beiträge: 503
Registriert: 26.11.2006 09:05:14

mts/m2ts Dateien zusammen fügen und Dauer korrigieren, möglich !?

Beitrag von ren22 » 11.09.2019 20:59:08

Hallo,

Angenommen ich habe zwei mts/m2ts Video Dateien, jeweils "1" Stream pro Datei, von dem gleichen Aufnahmegerät, nun
frage ich mich schon eine Weile, ob es reichen würde, mittels "cat", mts/m2ts Dateien verlustfrei und ohne konvertieren, zusammen zufügen und ob es reichen würde am Ende in der Ausgabe Datei, die Gesamtdauer beider Videos zu korrigieren!?

Oder, soweit ich informiert bin, da es sich um "Container" Dateien handelt, "(h264)!?" den "Header" von dem zweiten Video zu entfernen, dann mittels cat die beiden Dateien zusammen fügen und dann in der Ausgabedatei die Gesamtdauer beider Videos zu korrigieren, würde das funktionieren, hat da jemand Erfahrung ?

Danke

MaGe
Beiträge: 799
Registriert: 01.06.2014 17:12:16

Re: mts/m2ts Dateien zusammen fügen und Dauer korrigieren, möglich !?

Beitrag von MaGe » 11.09.2019 23:18:17

Besser mit ffmpeg ( concat )
kucks du hier
https://trac.ffmpeg.org/wiki/Concatenate



gruss MaGe
Wir müssen uns vor der Klimaerwärmung nicht fürchten.
Uns rottet die soziale Kälte viel früher aus.

ren22
Beiträge: 503
Registriert: 26.11.2006 09:05:14

Re: mts/m2ts Dateien zusammen fügen und Dauer korrigieren, möglich !?

Beitrag von ren22 » 11.09.2019 23:41:05

Hallo MaGe,

die Ausgabe mit mediainfo der ersten originalen Datei

den Befehl den ich bisher für ffmpeg verwendet habe um mts Dateien zusammen zufügen

Code: Alles auswählen

ffmpeg -f concat -i mylist.txt -c copy output.mkv
cat mylist.txt
file '00000.MTS'
file '00001.MTS'
die Ausgabe von mediainfo nach dem zusammen fügen mittels ffmpeg

Wenn ich nun die Ausgabe von mediainfo vergleiche mit der "neuen" zusammen gefügten Datei sehe ich alle diese Unterschiede, daher bin ich mir nicht mehr so sicher ob ich tatsächlich nach bei den original, unveränderten, außer zusammen gefügten roh Material sitze ...

hier der Unterschied mittels diff -u original.txt zusammengefügtedatei.txt | grep -E "^\+"
  • +Count : 323
    +Inform : Matroska: 34.4 MiB, 12 s 544 ms
    +Unique ID : 16437372703839866579121584735375268942
    +Unique ID : 16437372703839866579121584735375268942 (0xC5DB90B5EA4AD76D230DBDDA1931C4E)
    +Complete name : /mnt/projekte/mtsjoin/output.mkv
    +File name : output
    +File extension : mkv
    +Format : Matroska
    +Format : Matroska
    +Format/Url : http://packs.matroska.org/
    +Format/Extensions usually used : mkv mk3d mka mks
    +Commercial name : Matroska
    +Format version : Version 4 / Version 2
    +Codec : Matroska
    +Codec : Matroska
    +Codec/Url : http://packs.matroska.org/
    +Codec/Extensions usually used : mkv mk3d mka mks
    +File size : 36120119
    +File size : 34.4 MiB
    +File size : 34 MiB
    +File size : 34 MiB
    +File size : 34.4 MiB
    +File size : 34.45 MiB
    +Duration : 12544
    +Duration : 12 s 544 ms
    +Duration : 12 s 544 ms
    +Duration : 12 s 544 ms
    +Duration : 00:00:12.544
    +Duration : 00:00:12:27
    +Duration : 00:00:12.544 (00:00:12:27)
    +Overall bit rate : 23035790
    +Frame count : 627
    +Stream size : 729887
    +Stream size : 713 KiB (2%)
    +Stream size : 713 KiB
    +Stream size : 713 KiB
    +Stream size : 713 KiB
    +Stream size : 712.8 KiB
    +Stream size : 713 KiB (2%)
    +Proportion of this stream : 0.02021
    +File last modification date : UTC 2019-09-11 21:26:37
    +File last modification date (local) : 2019-09-11 23:26:37
    +Writing application : Lavf57.71.100
    +Writing application : Lavf57.71.100
    +Writing library : Lavf57.71.100 / Lavf57.71.100
    +Writing library : Lavf57.71.100 / Lavf57.71.100
    +ErrorDetectionType : Per level 1
    +StreamOrder : 0
    +Inform : 22.2 Mb/s, 1920*1080 (16:9), at 50.000 FPS, AVC (High@L4.2) (CABAC / 4 Ref Frames)
    +ID : 1
    +ID : 1
    +Unique ID : 1
    +Codec ID : V_MPEG4/ISO/AVC
    +Codec ID/Url : http://ffdshow-tryout.sourceforge.net/
    +Codec : V_MPEG4/ISO/AVC
    +Codec/Url : http://ffdshow-tryout.sourceforge.net/
    +Duration : 12540
    +Duration : 12 s 540 ms
    +Duration : 12 s 540 ms
    +Duration : 12 s 540 ms
    +Duration : 00:00:12.540
    +Duration : 00:00:12:27
    +Duration : 00:00:12.540 (00:00:12:27)
    +Bit rate : 22193378
    +Bit rate : 22.2 Mb/s
    +Frame rate mode : CFR
    +Frame rate mode : Constant
    +Frame count : 627
    +Bits/(Pixel*Frame) : 0.214
    +Delay : 0
    +Delay : 00:00:00.000
    +Delay, origin : Container
    +Delay, origin : Container
    +Stream size : 34788120
    +Stream size : 33.2 MiB (96%)
    +Stream size : 33 MiB
    +Stream size : 33 MiB
    +Stream size : 33.2 MiB
    +Stream size : 33.18 MiB
    +Stream size : 33.2 MiB (96%)
    +Proportion of this stream : 0.96312
    +Default : Yes
    +Default : Yes
    +Forced : No
    +Forced : No
    +DURATION : 00:00:12.512000000
    +StreamOrder : 1
    +ID : 2
    +ID : 2
    +Unique ID : 2
    +Codec ID : A_AC3
    +Codec/Family : AC3
    +Codec/Info : Dolby AC3
    +Duration : 12544
    +Duration : 12 s 544 ms
    +Duration : 12 s 544 ms
    +Duration : 12 s 544 ms
    +Duration : 00:00:12.544
    +Duration : 00:00:12.544
    +Samples count : 602112
    +Delay : 0
    +Delay : 00:00:00.000
    +Delay relative to video : 0
    +Delay relative to video : 00:00:00.000
    +Video0 delay : 0
    +Video0 delay : 00:00:00.000
    +Stream size : 602112
    +Stream size : 588 KiB (2%)
    +Stream size : 588 KiB
    +Stream size : 588 KiB
    +Stream size : 588 KiB
    +Stream size : 588.0 KiB
    +Stream size : 588 KiB (2%)
    +Proportion of this stream : 0.01667
    +Default : Yes
    +Default : Yes
    +Forced : No
    +Forced : No
    +DURATION : 00:00:12.544000000
    +dialnorm_Count : 300
    +compr_Count : 300
quelle: mediainfo

MaGe
Beiträge: 799
Registriert: 01.06.2014 17:12:16

Re: mts/m2ts Dateien zusammen fügen und Dauer korrigieren, möglich !?

Beitrag von MaGe » 12.09.2019 10:32:40

keine Ahnung warum, vermutung original ist eine Blu-ray?
kopie ist Matroska anderer header?

Teste mal
ffmpeg -f concat -i mylist.txt -c copy output.MTS

habe keine Blu-ray :evil:


gruss MaGe
Wir müssen uns vor der Klimaerwärmung nicht fürchten.
Uns rottet die soziale Kälte viel früher aus.

Antworten